.
Авторизация | Регистрация
Хочешь лучшие торренты? Добавь свой email!
Добавить
» » Последний охотник на ведьм / The Last Witch Hunter (2015) CAMRip скачать торрент бесплатно




    Последний охотник на ведьм / The Last Witch Hunter (2015) CAMRip скачать торрент бесплатно

    Опубликовал: Админ | Дата: 2-11-2015, 05:01 | Просмотров: 438



    Детально о кино
    Русское название: Последний охотник на ведьм
    Русское название в мировом прокате: The Last Witch Hunter
    Создали в: 2015
    Категория жанра: фэнтези, боевик, приключения
    Главный режиссер: Брек Эйснер

    Актеры
    Вин Дизель, Роуз Лесли, Элайджа Вуд, Оулавюр Дарри Оулафссон, Рина Оуэн, Юли Энгельбрехт, Майкл Кейн, Джозеф Гилган, Исаак Де Банколе, Майкл Халсли

    Сюжет фильма
    Современный мир скрывает множество секретов, но самым удивительным из них является то, что ведьмы до сих пор живут среди нас. Это злобные сверхъестественные существа, чья цель — наслать на мир смертоносную чуму. Армии охотников на ведьм сражались с ними на протяжении многих веков. В наши дни остался всего лишь один охотник на ведьм, Колдер, которому однажды удалось убить всемогущую королеву ведьм. Но Колдер еще не знает, что королева воскресла и жаждет отомстить своему убийце…


    Снималось в: США/Aperture Entertainment, Atmosphere Entertainment MM, NeoReel
    Время просмотра: 01: 36: 53
    Тип перевода: Дублированное
    Файл
    Тип видео: AVI (XviD)
    Качество фильма: CAMRip
    Информация о видео: 872 kb/s, 720x272
    Информация о звуке: AC3, 128 kb/s (2 ch)
    Размер скачиваемого торрента: 700 MB
    Скачать: Сэмпл
    Media Info
    General
    Complete name : C: UsersuserDesktop5os1eDniy.0xo1niK.na.8eDm.2015.D.CAMRip.700MB.avi
    Format : AVI
    Format/Info : Audio Video Interleave
    File size : 700 MiB
    Duration : 1h 36mn
    Overall bit rate : 1 011 Kbps
    Writing application : VirtualDubMod 1.5.10.3 | www.virtualdub-fr.org || (build 2550/release)
    Writing library : VirtualDubMod build 2550/release
    Video
    ID : 0
    Format : MPEG-4 Visual
    Format profile : Advanced Simple@L5
    Format settings, BVOP : 2
    Format settings, QPel : No
    Format settings, GMC : No warppoints
    Format settings, Matrix : Default (MPEG)
    Codec ID : XVID
    Codec ID/Hint : XviD
    Duration : 1h 36mn
    Bit rate : 873 Kbps
    Width : 720 pixels
    Height : 272 pixels
    Display aspect ratio : 2.647
    Frame rate : 25.000 fps
    Color space : YUV
    Chroma subsampling : 4: 2: 0
    Bit depth : 8 bits
    Scan type : Progressive
    Compression mode : Lossy
    Bits/(Pixel*Frame) : 0.178
    Stream size : 605 MiB (86%)
    Writing library : XviD 1.2.1 (UTC 2008-12-04)
    Audio
    ID : 1
    Format : AC-3
    Format/Info : Audio Coding 3
    Mode extension : CM (complete main)
    Format settings, Endianness : Big
    Codec ID : 2000
    Duration : 1h 36mn
    Bit rate mode : Constant
    Bit rate : 128 Kbps
    Channel(s) : 2 channels
    Channel positions : Front: L R
    Sampling rate : 48.0 KHz
    Compression mode : Lossy
    Stream size : 88.7 MiB (13%)
    Alignment : Split accross interleaves
    Interleave, duration : 40 ms (1.00 video frame)
    Interleave, preload duration : 500 ms
    Скриншоты | повтор:



    Онлайн видео Последний охотник на ведьм


    Размер скачиваемого торрента: 700.39 MB (734414848 Bytes)

    Последний охотник на ведьм/The Last Witch Hunter (2015) CAMRip
    загрузка...
    Рейтинг →
     (голосов: 1, оценка 5/5, голосовать можно 1 раз )

    Другие торренты по теме:

  • Последний охотник / Hunter Prey (2010) HDRip-AVC от ExKinoRay
  • Последний охотник на ведьм / The Last Witch Hunter (2015) WEBRip 1080p | Трейлер
  • Последний охотник на ведьм / The Last Witch Hunter (2015) WEBRip 1080p Трейлер | L
  • Последний охотник на ведьм (2015) дублированный
  • Последний охотник на ведьм / The Last Witch Hunter (2015) WEB-DL 720p | iTunes
  • Последний охотник на ведьм / The Last Witch Hunter (2015) WEB-DLRip-AVC от ExKinoRay | iTunes
  • Последний охотник на ведьм / The Last Witch Hunter (2015) HDRip | КПК | iTunes
  • Последний охотник на ведьм / The Last Witch Hunter (2015) BDRip от AleksSin | D | iTunes


    • Комментарии (0):

      Информация

      Информация

        Посетители, находящиеся в группе Гости, не могут оставлять комментарии в данной новости.

        ↓ Меню



        ↓ Опрос

        А Вы добавили сайт в закладки?
        Да
        Не


        Top 10 за месяц (Фильмы)