.
Авторизация | Регистрация
Хочешь лучшие торренты? Добавь свой email!
Добавить
» » Агенты А.Н.К.Л. / The Man from U.N.C.L.E. (2015) WEB-DL 720р от Scarabey | Чистый звук, А скачать торрент бесплатно




    Агенты А.Н.К.Л. / The Man from U.N.C.L.E. (2015) WEB-DL 720р от Scarabey | Чистый звук, А скачать торрент бесплатно

    Опубликовал: Админ | Дата: 2-11-2015, 05:01 | Просмотров: 92



    Создали в: 2015
    Снималось в: США, Великобритания
    Категория жанра: боевик, комедия, приключения
    Время просмотра: 01: 56: 27
    Перевод текста: Профессиональный (полное дублирование) Чистый звук + Авторский (одноголосый, закадровый) Матвеев
    Субтитры подготовлены: есть, русские(форсированные) + английские (полные)
    Главный режиссер: Гай Ричи/Guy Ritchie

    Актеры
    Генри Кавилл, Арми Хаммер, Алисия Викандер, Элизабет Дебики, Хью Грант, Лука Кальвани, Сильвестр Грот, Джаред Харрис, Кристиан Беркель, Миша Кузнецов

    Описание фильма
    Наполеон Соло — агент ЦРУ, на счету которого огромное количество успешно проведенных операций. Он считается одним из лучших секретных агентов во всем мире, и с ним может сравниться только один человек — самый молодой и перспективный агент КГБ, Илья Курякин. Их противостояние переросло в настоящую войну, в которой никто не собирается уступать. Однако обстоятельства складываются так, что непримиримые враги вынуждены стать напарниками. Это происходит после того как спецслужбы двух стран обнаруживают международную преступную организацию, которой удалось создать ядерную бомбу…
    Качество фильма видео: WEB-DL 720р
    Тип видео видео: MKV
    Информация о видео: 1280х530, 23.976 fps, AVC, ~3960 kbps avg
    Информация о звуке: 48 kHz, AC3 Dolby Digital, 2/0 (L, R) ch, ~192 kbps - дубляж
    Информация о звуке: 48 kHz, AC3 Dolby Digital, 3/2 (L, C, R, l, r) + LFE ch, ~384 kbps - Матвеев
    Информация о звуке: 48 kHz, AC3 Dolby Digital, 3/2 (L, C, R, l, r) + LFE ch, ~384 kbps - оригинал
    Информация о видео: PLAYNOW
    Сборка: Scarabey

    Релиз подготовил:
    АНОНСЫ МОИХ РАЗДАЧ!


    Скриншоты

    МедиаИнфо

    Агенты АНКЛThe.Man.from.U.N.C.L.E.2015.720p.WEB-DL_scarabey.org.mkv
    Format : Matroska
    Format version : Version 4/Version 2
    File size : 4.08 GiB
    Duration : 1h 56mn
    Overall bit rate : 5 020 Kbps
    Encoded date : UTC 2015-11-01 09: 49: 15
    Writing application : mkvmerge v6.1.0 (;Old Devil;) built on Mar 4 2013 09: 10: 42
    Writing library : libebml v1.3.0 + libmatroska v1.4.0
    DURATION : 01: 46: 04.217000000
    NUMBER_OF_FRAMES : 1250
    NUMBER_OF_BYTES : 50924
    _STATISTICS_WRITING_APP : mkvmerge v7.0.0 (;Where We Going;) 64bit built on Jun 9 2014 15: 16: 27
    _STATISTICS_WRITING_DATE_UTC : 2015-10-27 04: 42: 17
    _STATISTICS_TAGS : BPS DURATION NUMBER_OF_FRAMES NUMBER_OF_BYTES
    Video
    ID : 1
    Format : AVC
    Format/Info : Advanced Video Codec
    Format profile : Main@L3.1
    Format settings, CABAC : No
    Format settings, ReFrames : 2 frames
    Codec ID : V_MPEG4/ISO/AVC
    Duration : 1h 56mn
    Bit rate : 3 960 Kbps
    Width : 1 280 pixels
    Height : 530 pixels
    Display aspect ratio : 2.40: 1
    Frame rate mode : Constant
    Frame rate : 23.976 fps
    Color space : YUV
    Chroma subsampling : 4: 2: 0
    Bit depth : 8 bits
    Scan type : Progressive
    Bits/(Pixel*Frame) : 0.243
    Stream size : 3.22 GiB (79%)
    Language : English
    Default : Yes
    Forced : No
    Color primaries : BT.709
    Transfer characteristics : BT.709
    Matrix coefficients : BT.709
    Color range : Limited
    Audio #1
    ID : 2
    Format : AC-3
    Format/Info : Audio Coding 3
    Mode extension : CM (complete main)
    Format settings, Endianness : Big
    Codec ID : A_AC3
    Duration : 1h 56mn
    Bit rate mode : Constant
    Bit rate : 192 Kbps
    Channel(s) : 2 channels
    Channel positions : Front: L R
    Sampling rate : 48.0 KHz
    Bit depth : 16 bits
    Compression mode : Lossy
    Stream size : 160 MiB (4%)
    Title : Дубляж - Чистый звук
    Language : Russian
    Default : No
    Forced : No
    Audio #2
    ID : 3
    Format : AC-3
    Format/Info : Audio Coding 3
    Mode extension : CM (complete main)
    Format settings, Endianness : Big
    Codec ID : A_AC3
    Duration : 1h 56mn
    Bit rate mode : Constant
    Bit rate : 384 Kbps
    Channel(s) : 6 channels
    Channel positions : Front: L C R, Side: L R, LFE
    Sampling rate : 48.0 KHz
    Bit depth : 16 bits
    Compression mode : Lossy
    Stream size : 320 MiB (8%)
    Title : Матвеев
    Language : Russian
    Default : No
    Forced : No
    Audio #3
    ID : 4
    Format : AC-3
    Format/Info : Audio Coding 3
    Mode extension : CM (complete main)
    Format settings, Endianness : Big
    Codec ID : A_AC3
    Duration : 1h 56mn
    Bit rate mode : Constant
    Bit rate : 384 Kbps
    Channel(s) : 6 channels
    Channel positions : Front: L C R, Side: L R, LFE
    Sampling rate : 48.0 KHz
    Bit depth : 16 bits
    Compression mode : Lossy
    Stream size : 320 MiB (8%)
    Language : English
    Default : Yes
    Forced : No
    Text #1
    ID : 5
    Format : UTF-8
    Codec ID : S_TEXT/UTF8
    Codec ID/Info : UTF-8 Plain Text
    Title : Русские, форсированные
    Language : Russian
    Default : No
    Forced : No
    Text #2
    ID : 6
    Format : UTF-8
    Codec ID : S_TEXT/UTF8
    Codec ID/Info : UTF-8 Plain Text
    Title : Оригинал
    Language : English
    Default : No
    Forced : No
    Menu
    00: 00: 00.000 : en: 1
    00: 15: 18.000 : en: 2
    00: 23: 10.000 : en: 3
    00: 32: 08.000 : en: 4
    00: 40: 34.000 : en: 5
    00: 49: 06.000 : en: 6
    00: 59: 22.000 : en: 7
    01: 08: 51.000 : en: 8
    01: 20: 27.000 : en: 9
    01: 29: 46.000 : en: 10
    01: 43: 20.000 : en: 11
    01: 49: 22.000 : en: 12


    Онлайн видео Агенты А.Н.К.Л.


    Размер скачиваемого торрента: 4.08 GB (4383997245 Bytes)

    Агенты А.Н.К.Л./The Man from U.N.C.L.E. (2015) WEB-DL 720р от Scarabey | Чистый звук, А
    загрузка...
    Рейтинг →
     (голосов: 1, оценка 4/5, голосовать можно 1 раз )

    Другие торренты по теме:

  • Агенты А.Н.К.Л. / The Man from U.N.C.L.E. (2015) WEBRip 1080p | Трейлер
  • Агенты А.Н.К.Л. / The Man from U.N.C.L.E. (2015) WEB-DL 720p | Матвеев
  • Агенты А.Н.К.Л. / The Man from U.N.C.L.E. (2015) WEB-DLRip от Scarabey | Чистый звук
  • Агенты А.Н.К.Л. / The Man from U.N.C.L.E. / 2015 / АП (Матвеев) / WEB-DL (1080p)
  • Агенты А.Н.К.Л. / The Man from U.N.C.L.E. (2015) BDRip 720p от BlueBird | D, A | iTunes
  • Агенты А.Н.К.Л. / The Man from U.N.C.L.E. / 2015 / ДБ / BDRip (720p)
  • Агенты А.Н.К.Л. / The Man from U.N.C.L.E. / 2015 / ДБ, АП (Есарев), СТ / BDRip (720p)
  • Агенты А.Н.К.Л. / The Man from U.N.C.L.E. / 2015 / АП (Матвеев), СТ / BDRip (720p)


    • Комментарии (0):

      Информация

      Информация

        Посетители, находящиеся в группе Гости, не могут оставлять комментарии в данной новости.

        ↓ Меню



        ↓ Опрос

        А Вы добавили сайт в закладки?
        Да
        Не


        Top 10 за месяц (Фильмы)