.
Авторизация | Регистрация
Хочешь лучшие торренты? Добавь свой email!
Добавить
» » Молодые стрелки 2 / Young Guns II (1990) HDTVRip от Leon-masl | P, A скачать торрент бесплатно




    Молодые стрелки 2 / Young Guns II (1990) HDTVRip от Leon-masl | P, A скачать торрент бесплатно

    Опубликовал: Админ | Дата: 1-11-2015, 05:01 | Просмотров: 120



    Детально о кино
    Русское название: Молодые стрелки 2
    Русское название в мировом прокате: Young Guns II
    Создали в: 1990
    Категория жанра: Вестерн, боевик
    Главный режиссер: Джеф Мерфи/Geoff Murphy

    Актеры
    Эмилио Эстевез, Кифер Сазерленд, Лу Даймонд Филлипс, Кристиан Слэйтер, Уильям Л. Питерсен, Алан Рак, Р.Д. Колл, Джеймс Коберн, Бальтазар Гетти, Джек Кихоу

    Сюжет фильма

    В Нью-Мексико по-прежнему властвуют законы пограничных территорий, а точнее, царит полное беззаконие. Единственный, кто готов сражаться за справедливость — легендарный Билли Кид, безжалостный к врагам и не знающий, что такое промах. Вместе с новым приятелем Дэйвом Билли вытаскивает из тюрьмы оставшихся в живых друзей: Дока и Чавеса. Слава о подвигах парней вновь гремит на всю Америку. Тогда местные власти и богачи назначают за их головы щедрую награду, но Билли и его друзей не так то просто загнать в угол…

    Снималось в: США
    Время просмотра: 01: 44: 00
    Перевод текста: Профессиональный (многоголосый закадровый) |Премьер|, Авторский (одноголосый закадровый) А.Гаврилов
    Файл
    Кодек для видео: XviD
    Качество фильма: HDTVRip
    Информация о видео: 720x304, 23.976 fps, XviD build 73, 1613 kbps
    Информация о звуке 1: AC3 Dolby Digital, 2/0 (L, R) ch, 192.00 kbps.......Профессиональный (многоголосый закадровый) |Премьер|
    Информация о звуке 2: AC3 Dolby Digital, 2/0 (L, R) ch, 192.00 kbps.......Авторский (одноголосый закадровый) А.Гаврилов
    MI
    Общее
    Полное имя : Molodjie.Strelki.2.1990.HDTVRip.avi
    Формат : AVI
    Формат/Информация : Audio Video Interleave
    Размер файла : 1, 46 Гбайт
    Продолжительность : 1 ч. 44 м.
    Общий поток : 2012 Кбит/сек
    Программа кодирования : VirtualDubMod 1.5.10.2 (build 2542/release)
    Библиотека кодирования : VirtualDubMod build 2542/release
    Видео
    Идентификатор : 0
    Формат : MPEG-4 Visual
    Профиль формата : Advanced Simple@L5
    Параметр BVOP формата : 1
    Параметр QPel формата : Нет
    Параметр GMC формата : Без точки перехода
    Параметр матрицы формата : Выборочная
    Идентификатор кодека : XVID
    Идентификатор кодека/Подсказка : XviD
    Продолжительность : 1 ч. 44 м.
    Битрейт : 1613 Кбит/сек
    Ширина : 720 пикс.
    Высота : 304 пикс.
    Соотношение сторон : 2, 35: 1
    Частота кадров : 23, 976 кадр/сек
    Цветовое пространство : YUV
    Подвыборка цветности : 4: 2: 0
    Битовая глубина : 8 бит
    Тип развёртки : Прогрессивная
    Метод сжатия : С потерями
    Бит/(Пиксели*Кадры) : 0.307
    Размер потока : 1, 17 Гбайт (80%)
    Библиотека кодирования : XviD 73
    Аудио #1
    Идентификатор : 1
    Формат : AC-3
    Формат/Информация : Audio Coding 3
    Расширение режима : CM (complete main)
    Идентификатор кодека : 2000
    Продолжительность : 1 ч. 43 м.
    Вид битрейта : Постоянный
    Битрейт : 192 Кбит/сек
    Канал(ы) : 2 канала(ов)
    Расположение каналов : Front: L R
    Частота : 48, 0 КГц
    Битовая глубина : 16 бит
    Метод сжатия : С потерями
    Размер потока : 143 Мбайт (10%)
    Выравнивание : Разделение по промежуткам
    Продолжительность промежутка : 42 мс. (1, 00 видеокадр)
    Время предзагрузки промежутка : 500 ms
    Аудио #2
    Идентификатор : 2
    Формат : AC-3
    Формат/Информация : Audio Coding 3
    Расширение режима : CM (complete main)
    Идентификатор кодека : 2000
    Продолжительность : 1 ч. 43 м.
    Вид битрейта : Постоянный
    Битрейт : 192 Кбит/сек
    Канал(ы) : 2 канала(ов)
    Расположение каналов : Front: L R
    Частота : 48, 0 КГц
    Битовая глубина : 16 бит
    Метод сжатия : С потерями
    Размер потока : 143 Мбайт (10%)
    Выравнивание : Разделение по промежуткам
    Продолжительность промежутка : 42 мс. (1, 00 видеокадр)
    Время предзагрузки промежутка : 500 ms
    Скриншоты

    Релиз подготовил: Leon-masl
    Залил: leon-masl

    Онлайн видео Молодые стрелки 2


    Размер скачиваемого торрента: 1.46 GB (1569062912 Bytes)

    Молодые стрелки 2/Young Guns II (1990) HDTVRip от Leon-masl | P, A
    загрузка...
    Рейтинг →
     (голосов: 1, оценка 4/5, голосовать можно 1 раз )

    Другие торренты по теме:

  • Молодые стрелки (Молодые револьверы) / Young Guns / 1988 / ПМ, АП (Гаврилов, Санаев) / BDRip (720p)
  • Молодые стрелки (Молодые револьверы) / Young Guns / 1988 / ПД / BDRip
  • Молодые стрелки / Young Guns (1988) BDRip-AVC от Тorrent-Хzona
  • Молодые стрелки 2 / Young Guns 2 (1990) HDTVRip-AVC от Тorrent-Хzona
  • Молодые стрелки / Young Guns (1988) BDRip от HQCLUB скачать через торрент бесплатно
  • Молодые стрелки 2 / Young Guns II (1990) HDTV 720p | P,A
  • Молодые стрелки 2 / Young Guns II (1990) HDTVRip от Шкипер
  • Молодые стрелки / Young Guns (1988) HDRip-AVC от NNM-CLUB | P2, A


    • Комментарии (0):

      Информация

      Информация

        Посетители, находящиеся в группе Гости, не могут оставлять комментарии в данной новости.

        ↓ Меню



        ↓ Опрос

        А Вы добавили сайт в закладки?
        Да
        Не


        Top 10 за месяц (Фильмы)