.
Авторизация | Регистрация
Хочешь лучшие торренты? Добавь свой email!
Добавить
» » Квест (2015) WEB-DLRip от GeneralFilm скачать торрент бесплатно




    Квест (2015) WEB-DLRip от GeneralFilm скачать торрент бесплатно

    Опубликовал: Админ | Дата: 31-10-2015, 12:50 | Просмотров: 160



    Детально о кино
    Русское название в мировом прокате: Квест
    Создали в: 2015
    Категория жанра: Детектив, криминал, приключения
    Главный режиссер: Андрей Загидуллин, Александр Данилов

    Актеры
    Павел Прилучный, Агата Муцениеце, Марина Петренко, Илья Иосифов, Михаил Евланов, Петр Рыков, Алексей Франдетти, Виктория Корлякова, Роман Волобуев

    Сюжет фильма

    Они не знали друг друга до того дня, пока в одном московском клубе их не отравили неизвестным ядом. И теперь тем из них, кто не умер на месте, а получил отложенную на 72 часа смерть, предстоит выполнить несколько заданий загадочного кукловода, который единственный в мире имеет антидот. Если задания будут выполнены, то наградой для выживших станет противоядие. В роли карты острова сокровищ — мистическое, полное сюрпризов наследие Якова Брюса — сподвижника Петра I, слывшего в народе колдуном и чернокнижником. Однако чтобы завладеть этим наследием, героям предстоит пройти вполне реальные испытания, которые некоторым из них будут стоить жизни. Опасный квест с первых же минут оправдывает себя — герои погружаются в мир тайн прошлого, о котором мало кто знает из современников. Одна загадка переплетается с другой, современная жизнь перемешивается с прошлым. Оказывается, в Москве полно странных загадок и тайн, которым позавидовал бы сам профессор Роберт Лэнгдон из Кода да Винчи.
    Снималось в: Россия, СТС
    Время просмотра: 4 x ~ 00: 45: 00
    Перевод текста: Не требуется
    Файл
    Качество фильма: WEB-DLRip
    Информация о видео: XviD, ~ 760 Кбит/с, 688x384
    Информация о звуке: MP3, 2 ch, 128 Кбит/с
    МедиаИнфо
    Общее
    Полное имя : Kvest.(16.serij.iz.16).2015.XviD.WEB-DLRip.by.GeneralFilm?2.serija.avi
    Формат : AVI
    Формат/Информация : Audio Video Interleave
    Размер файла : 279 Мбайт
    Продолжительность : 43 м.
    Общий поток : 898 Кбит/сек
    Программа кодирования : VirtualDubMod 1.5.10.3 | www.virtualdub-fr.org || (build 2550/release)
    Библиотека кодирования : VirtualDubMod build 2550/release
    Видео
    Идентификатор : 0
    Формат : MPEG-4 Visual
    Профиль формата : Advanced Simple@L5
    Параметр BVOP формата : 1
    Параметр QPel формата : Нет
    Параметр GMC формата : Без точки перехода
    Параметр матрицы формата : Выборочная
    Идентификатор кодека : XVID
    Идентификатор кодека/Подсказка : XviD
    Продолжительность : 43 м.
    Битрейт : 760 Кбит/сек
    Ширина : 688 пикселей
    Высота : 384 пикселя
    Соотношение сторон : 16: 9
    Частота кадров : 25, 000 кадров/сек
    Цветовое пространство : YUV
    Субдискретизация насыщенности : 4: 2: 0
    Битовая глубина : 8 бит
    Тип развёртки : Прогрессивная
    Метод сжатия : С потерями
    Бит/(Пиксели*Кадры) : 0.115
    Размер потока : 236 Мбайт (85%)
    Библиотека кодирования : XviD 73
    Аудио
    Идентификатор : 1
    Формат : MPEG Audio
    Версия формата : Version 1
    Профиль формата : Layer 3
    Идентификатор кодека : 55
    Идентификатор кодека/Подсказка : MP3
    Продолжительность : 43 м.
    Вид битрейта : Постоянный
    Битрейт : 128 Кбит/сек
    Каналы : 2 канала
    Частота : 48, 0 КГц
    Метод сжатия : С потерями
    Размер потока : 39, 8 Мбайт (14%)
    Выравнивание : Соединение по промежуткам
    Продолжительность промежутка : 40 мс. (1, 00 видеокадр)
    Время предзагрузки промежутка : 504 мс.
    Библиотека кодирования : LAME3.99r
    Залил: vsobbol
    Размер скачиваемого торрента: 1.09 GB (1170688000 Bytes)


    Квест (2015) WEB-DLRip от GeneralFilm
    загрузка...
    Рейтинг →
     (голосов: 1, оценка 5/5, голосовать можно 1 раз )

    Другие торренты по теме:

  • Том и Джерри: Шпион Квест / Tom and Jerry: Spy Quest (2015) WEB-DLRip-AVC от ExKinoray | iTunes
  • Квест / The Quest (2014) WEB-DLRip | BaibaKo
  • Том и Джерри: Шпион Квест / Tom and Jerry: Spy Quest (2015) WEB-DLRip | P
  • Том и Джерри: Шпион Квест / Tom and Jerry: Spy Quest (2015) WEB-DLRip от MegaPeer | iTunes
  • Квест (2015) WEB-DLRip от GeneralFilm
  • Квест (2015) WEB-DLRip | КПК
  • Квест (2015) WEB-DLRip | КПК


    • Комментарии (0):

      Информация

      Информация

        Посетители, находящиеся в группе Гости, не могут оставлять комментарии в данной новости.

        ↓ Меню



        ↓ Опрос

        А Вы добавили сайт в закладки?
        Да
        Не


        Top 10 за месяц (Фильмы)