.
Авторизация | Регистрация
Хочешь лучшие торренты? Добавь свой email!
Добавить
» » Детонатор / Pressure point (1997) VHSRip скачать торрент бесплатно




    Детонатор / Pressure point (1997) VHSRip скачать торрент бесплатно

    Опубликовал: Админ | Дата: 31-10-2015, 05:01 | Просмотров: 104



    Снималось в: США
    Создали в: Edgewood Entertainment, Q Entertainment
    Категория жанра: Боевик
    Создали в: 1997
    Время просмотра: 01: 32: 26
    Перевод текста: Авторский (Дьяконов)
    Главный режиссер: Дэвид Джанкола

    Актеры
    Дон Могаверо, Стив Рейлсбэк, Ларри Линвилл, Линда Лиока, Денис Джентиле, Аманда Дж. Рейли, Алекс Дэтчер, Ральф Фронгилло, Луис Дж. Джанкола, Фред Таттл
    Описание: Профессиональный убийца и негласный агент ЦРУ, из тех, что не выходят на пенсию и не числятся в списках на довольствие, сорвал покушение на чилийского посла — пожалел детей и прочих гражданских лиц, столпившихся возле торта с бомбой. Родное правительство дало ему три пожизненных срока, но потом был устроен побег из тюрьмы. Нужно было выполнить опасное задание — внедриться в террористическую группу, собирающуюся взорвать американский Белый Дом. Задание это наш герой лихо выполняет не без помощи симпатичной женщины, работающей в местной полиции, заодно разоблачив кое-каких высокопоставленных негодяев.

    Тип релиза: VHSRip
    Контейнер: AVI
    Информация о видео: 640x480 (1.33: 1), 25 fps, XviD MPEG-4 ~1860 kbps avg, 0.24 bit/pixel
    Информация о звуке 1: 48 kHz, AC3 Dolby Digital, 2/0 (L, R) ch, ~192 kbps (русский)
    Информация о звуке 2: 48 kHz, AC3 Dolby Digital, 2/0 (L, R) ch, ~192 kbps (немецкий)
    MediaInfo

    Общее
    Полное имя : D: ААА2Детонатор.avi
    Формат : AVI
    Формат/Информация : Audio Video Interleave
    Размер файла : 1, 46 Гбайт
    Продолжительность : 1 ч. 32 м.
    Общий поток : 2259 Кбит/сек
    Программа кодирования : VirtualDubMod 1.5.10.2 (build 2540/release)
    Библиотека кодирования : VirtualDubMod build 2540/release
    Видео
    Идентификатор : 0
    Формат : MPEG-4 Visual
    Профиль формата : Advanced Simple@L5
    Параметр BVOP формата : 2
    Параметр QPel формата : Нет
    Параметр GMC формата : Без точки перехода
    Параметр матрицы формата : Default (MPEG)
    Режим смешивания : Сжатый битовый поток
    Идентификатор кодека : XVID
    Идентификатор кодека/Подсказка : XviD
    Продолжительность : 1 ч. 32 м.
    Битрейт : 1862 Кбит/сек
    Ширина : 640 пикселей
    Высота : 480 пикселей
    Соотношение сторон : 4: 3
    Частота кадров : 25, 000 кадров/сек
    Цветовое пространство : YUV
    Субдискретизация насыщенности : 4: 2: 0
    Битовая глубина : 8 бит
    Тип развёртки : Прогрессивная
    Метод сжатия : С потерями
    Бит/(Пиксели*Кадры) : 0.242
    Размер потока : 1, 20 Гбайт (82%)
    Библиотека кодирования : XviD 1.2.1 (UTC 2008-12-04)
    Аудио #1
    Идентификатор : 1
    Формат : AC-3
    Формат/Информация : Audio Coding 3
    Расширение режима : CM (complete main)
    Параметр Endianness формата : Big
    Идентификатор кодека : 2000
    Продолжительность : 1 ч. 32 м.
    Вид битрейта : Постоянный
    Битрейт : 192 Кбит/сек
    Каналы : 2 канала
    Расположение каналов : Front: L R
    Частота : 48, 0 КГц
    Битовая глубина : 16 бит
    Метод сжатия : С потерями
    Размер потока : 126 Мбайт (8%)
    Выравнивание : Разделение по промежуткам
    Продолжительность промежутка : 40 мс. (1, 00 видеокадр)
    Время предзагрузки промежутка : 500 мс.
    Аудио #2
    Идентификатор : 2
    Формат : AC-3
    Формат/Информация : Audio Coding 3
    Расширение режима : CM (complete main)
    Параметр Endianness формата : Big
    Идентификатор кодека : 2000
    Продолжительность : 1 ч. 32 м.
    Вид битрейта : Постоянный
    Битрейт : 192 Кбит/сек
    Каналы : 2 канала
    Расположение каналов : Front: L R
    Частота : 48, 0 КГц
    Битовая глубина : 16 бит
    Метод сжатия : С потерями
    Размер потока : 127 Мбайт (8%)
    Выравнивание : Разделение по промежуткам
    Продолжительность промежутка : 40 мс. (1, 00 видеокадр)
    Время предзагрузки промежутка : 500 мс.


    Скриншоты



    Релиз:
    Залил: YArl

    Онлайн видео Детонатор


    Размер скачиваемого торрента: 1.46 GB (1566316544 Bytes)

    Детонатор/Pressure point (1997) VHSRip
    загрузка...
    Рейтинг →
     (голосов: 1, оценка 4/5, голосовать можно 1 раз )

    Другие торренты по теме:

  • Поезд смерти / Детонатор / Death Train (1992) DVDRip от FilmRus | A
  • Детонатор / Primer (2004) WEB-DL 1080р | Р2


    • Комментарии (0):

      Информация

      Информация

        Посетители, находящиеся в группе Гости, не могут оставлять комментарии в данной новости.

        ↓ Меню



        ↓ Опрос

        А Вы добавили сайт в закладки?
        Да
        Не


        Top 10 за месяц (Фильмы)