.
Авторизация | Регистрация
Хочешь лучшие торренты? Добавь свой email!
Добавить
» » Как я встретил вашу маму / How I Met Your Mother (2007-2008) WEB-DL 720p | Кураж-Бамбей, Paramount Comedy, MTV скачать торрент бесплатно




    Как я встретил вашу маму / How I Met Your Mother (2007-2008) WEB-DL 720p | Кураж-Бамбей, Paramount Comedy, MTV скачать торрент бесплатно

    Опубликовал: Админ | Дата: 31-10-2015, 05:01 | Просмотров: 155



    Информация о сериале
    Русское название: Как я встретил вашу маму
    Русское название в мировом прокате: How I Met Your Mother
    Годы выхода: 2007-2008
    Категория жанра: комедия, мелодрама
    Авторы идеи: Картер Бэйс/Carter Bays/ , Крейг Томас/Craig Thomas/
    Главный режиссеры: Памела Фрайман/Pamela Fryman/ , Роб Гринберг/Rob Greenberg/ , Майкл Дж. Ши/Michael J. Shea/ и др.

    Актеры
    Джош Рэднор/Josh Radnor/ , Нил Патрик Харрис/Neil Patrick Harris/ , Коби Смолдерс/Cobie Smulders/ , Джейсон Сигел/Jason Segel/ , Элисон Хэннигэн/Alyson Hannigan/ , Боб Сагет/Bob Saget/ , Линдси Фонсека/Lyndsy Fonseca/ , Дэвид Генри/David Henrie/ , Сара Чок/Sarah Chalke/ ,
    Шарлин Амойя/Charlene Amoia/ и др.
    О сериале:
    Как я встретил вашу маму — комедия про Теда и про то, как он влюбился. Все неприятности начинаются с того, что лучший друг Теда, Маршалл, вдруг неожиданно сообщил, что он хочет сделать предложение своей давней подруге, Лили, воспитательнице детского сада. К тому времени Тед понимает, что ему нужно прилагать больше усилий, если он действительно надеется найти свою настоящую любовь. Помогает ему в этих поисках его друг Барни, убежденный холостяк, вечно со своим, иногда чересчур, мнением на все происходящее, со склонностью к костюмам и верным способом познакомиться с девушками. Когда Тед встречает Робин, он решает, что это любовь с первого взгляда, но у судьбы в запасе есть кое-что еще.

    Снималось в: США
    Студии: 20th Century Fox Television/Bays Thomas Productions
    Время просмотра: 20 x ~ 00: 22: 00
    Перевод текста:
    Профессиональный (одноголосый, закадровый) -Кураж-Бамбей
    Профессиональный (двухголосый, закадровый) -Кураж-Бамбей по заказу Paramount Comedy
    Профессиональный (многоголосый, закадровый) -Кравец по заказу MTV
    Файл
    Кодек для видео: H.264
    Качество фильма: WEB-DL 720p
    Информация о видео: 1280x720 at 23.976 fps, MPEG-4 AVC, ~4000 kbps avg
    Информация о звуке#1: Russian: 48 kHz, AC3, 2/0 (L, R) ch, ~192.00 kbps avg |Одноголосый закадровый, Кураж-Бамбей |
    Информация о звуке#2: Russian: 48 kHz, AC3, 2/0 (L, R) ch, ~192.00 kbps avg |Двухголосый закадровый, Paramount Comedy |
    Информация о звуке#3: Russian: 48 kHz, AC3, 2/0 (L, R) ch, ~192.00 kbps avg |Многоголосый закадровый, MTV |
    Информация о звуке#4: English: 48 kHz, AC3, 3/2 (L, C, R, l, r) + LFE ch, ~384.00 kbps avg |Оригинал|
    Субтитры: Russian (Full), English (SDH)
    Скриншоты

    MediaInfo
    General
    Complete name : HIMYM.S03E01.720p.WEB-DL.3xRus.Eng.mkv
    Format : Matroska
    Format version : Version 4/Version 2
    File size : 757 MiB
    Duration : 20mn 52s
    Overall bit rate : 5 071 Kbps
    Movie name : How I Met Your Mother - Season 3 Episode 1 - Wait for It/Подожди-подожди
    Encoded date : UTC 2015-07-19 13: 35: 43
    Writing application : mkvmerge v7.7.0 (;Six Voices;) 32bit built on Feb 28 2015 23: 23: 00
    Writing library : libebml v1.3.1 + libmatroska v1.4.2
    DURATION : 00: 20: 23.302000000
    NUMBER_OF_FRAMES : 400
    NUMBER_OF_BYTES : 28402
    _STATISTICS_WRITING_APP : mkvmerge v7.7.0 (;Six Voices;) 32bit built on Feb 28 2015 23: 23: 00
    _STATISTICS_WRITING_DATE_UTC : 2015-07-19 13: 35: 43
    _STATISTICS_TAGS : BPS DURATION NUMBER_OF_FRAMES NUMBER_OF_BYTES
    Video
    ID : 1
    Format : AVC
    Format/Info : Advanced Video Codec
    Format profile : High@L3.1
    Format settings, CABAC : No
    Format settings, ReFrames : 2 frames
    Codec ID : V_MPEG4/ISO/AVC
    Duration : 20mn 52s
    Bit rate : 4 010 Kbps
    Width : 1 280 pixels
    Height : 720 pixels
    Display aspect ratio : 16: 9
    Frame rate mode : Constant
    Frame rate : 23.976 fps
    Color space : YUV
    Chroma subsampling : 4: 2: 0
    Bit depth : 8 bits
    Scan type : Progressive
    Bits/(Pixel*Frame) : 0.181
    Stream size : 599 MiB (79%)
    Title : HIMYM - S03E01 - Wait for It
    Language : English
    Default : Yes
    Forced : No
    Color range : Limited
    Color primaries : BT.709
    Transfer characteristics : BT.709
    Matrix coefficients : BT.709
    Audio #1
    ID : 2
    Format : AC-3
    Format/Info : Audio Coding 3
    Mode extension : CM (complete main)
    Format settings, Endianness : Big
    Codec ID : A_AC3
    Duration : 20mn 52s
    Bit rate mode : Constant
    Bit rate : 192 Kbps
    Channel(s) : 2 channels
    Channel positions : Front: L R
    Sampling rate : 48.0 KHz
    Compression mode : Lossy
    Stream size : 28.7 MiB (4%)
    Title : VO Кураж-Бамбей
    Language : Russian
    Default : Yes
    Forced : No
    Audio #2
    ID : 3
    Format : AC-3
    Format/Info : Audio Coding 3
    Mode extension : CM (complete main)
    Format settings, Endianness : Big
    Codec ID : A_AC3
    Duration : 20mn 52s
    Bit rate mode : Constant
    Bit rate : 192 Kbps
    Channel(s) : 2 channels
    Channel positions : Front: L R
    Sampling rate : 48.0 KHz
    Compression mode : Lossy
    Stream size : 28.7 MiB (4%)
    Title : DVO Paramount Comedy/Кураж-Бамбей 2014
    Language : Russian
    Default : No
    Forced : No
    Audio #3
    ID : 4
    Format : AC-3
    Format/Info : Audio Coding 3
    Mode extension : CM (complete main)
    Format settings, Endianness : Big
    Codec ID : A_AC3
    Duration : 20mn 52s
    Bit rate mode : Constant
    Bit rate : 192 Kbps
    Channel(s) : 2 channels
    Channel positions : Front: L R
    Sampling rate : 48.0 KHz
    Compression mode : Lossy
    Stream size : 28.7 MiB (4%)
    Title : MVO MTV/Кравец
    Language : Russian
    Default : No
    Forced : No
    Audio #4
    ID : 5
    Format : AC-3
    Format/Info : Audio Coding 3
    Mode extension : CM (complete main)
    Format settings, Endianness : Big
    Codec ID : A_AC3
    Duration : 20mn 52s
    Bit rate mode : Constant
    Bit rate : 384 Kbps
    Channel(s) : 6 channels
    Channel positions : Front: L C R, Side: L R, LFE
    Sampling rate : 48.0 KHz
    Compression mode : Lossy
    Stream size : 57.3 MiB (8%)
    Title : Original
    Language : English
    Default : No
    Forced : No
    Text #1
    ID : 6
    Format : UTF-8
    Codec ID : S_TEXT/UTF8
    Codec ID/Info : UTF-8 Plain Text
    Language : Russian
    Default : No
    Forced : No
    Text #2
    ID : 7
    Format : UTF-8
    Codec ID : S_TEXT/UTF8
    Codec ID/Info : UTF-8 Plain Text
    Language : English
    Default : No
    Forced : No
    Список серий
    01. Wait for It/Подожди-подожди
    02. We;re Not from Here/Мы не местные
    03. Third Wheel/Третье колесо
    04. Little Boys/Маленькие мальчики
    05. How I Met Everyone Else/Как я познакомился со всеми остальными
    06. I;m Not That Guy/Я не тот парень
    07. Dowisetrepla/Dowisetrepla
    08. Spoiler Alert/Предупреждение о спойлерах
    09. Slapsgiving/День пощёчедавания
    10. The Yips/Мандраж
    11. The Platinum Rule/Платиновое правило
    12. No Tomorrow/Завтра не наступит
    13. Ten Sessions/Десять сеансов
    14. The Bracket/Список
    15. The Chain of Screaming/Кричащая цепь
    16. Sandcastles in the Sand/Песчаные замки на песке
    17. The Goat/Коза
    18. Rebound Bro/Разочарованный братан
    19. Everything Must Go/Всё должно уйти
    20. Miracles/Чудеса


    Онлайн видео Как я встретил вашу маму


    Размер скачиваемого торрента: 15.08 GB (16193995977 Bytes)

    Как я встретил вашу маму/How I Met Your Mother (2007-2008) WEB-DL 720p | Кураж-Бамбей, Paramount Comedy, MTV
    загрузка...
    Рейтинг →
     (голосов: 1, оценка 3/5, голосовать можно 1 раз )

    Другие торренты по теме:

  • Как Я Встретил Вашу Маму / How I Met Your Mother (2012) WEB-DL 1080p | Кураж-Бамбей
  • Как я встретил вашу маму / How I Met Your Mother (2005 – 2013) HDTVRip, WEB-DLRip, DVDRip | Кураж-Бамбей
  • Как Я Встретил Вашу Маму / How I Met Your Mother (2012) WEB-DLRip | Кураж-Бамбей скачать через торрент бесплатно
  • Как Я Встретил Вашу Маму / How I Met Your Mother (2012) HDTVRip | Кураж-Бамбей скачать через торрент бесплатно
  • Как Я Встретил Вашу Маму / How I Met Your Mother (2012) HDTVRip-AVC | Кураж-Бамбей
  • Как Я Встретил Вашу Маму / How I Met Your Mother (2013) WEB-DL 1080p | Кураж-Бамбей
  • Как Я Встретил Вашу Маму / How I Met Your Mother (2013) WEB-DLRip | Кураж-Бамбей
  • Как я встретил вашу маму / How I Met Your Mother (2013) WEB-DL 720p | Sub


    • Комментарии (0):

      Информация

      Информация

        Посетители, находящиеся в группе Гости, не могут оставлять комментарии в данной новости.

        ↓ Меню



        ↓ Опрос

        А Вы добавили сайт в закладки?
        Да
        Не


        Top 10 за месяц (Фильмы)