.
Авторизация | Регистрация
Хочешь лучшие торренты? Добавь свой email!
Добавить
» » Ночь в музее 2 / Night at the Museum: Battle of the Smithsonian (2009) BDRip-AVC | A скачать торрент бесплатно




    Ночь в музее 2 / Night at the Museum: Battle of the Smithsonian (2009) BDRip-AVC | A скачать торрент бесплатно

    Опубликовал: Админ | Дата: 29-10-2015, 05:01 | Просмотров: 124


    Ночь в музее 2/Night at the Museum: Battle of the Smithsonian

    Снималось в: США, Канада/1492 Pictures, 20th Century Fox Film Corporation
    Категория жанра: Фэнтези, Боевик, Комедия, Приключения, Семейный
    Создали в: 2009
    Время просмотра: 01: 44: 43
    Перевод текста: Авторский (одноголосый закадровый) Вячеслав Котов
    Субтитры подготовлены: нет
    Главный режиссер: Шон Леви/Shawn Levy

    Актеры
    Бен Стиллер, Эми Адамс, Оуэн Уилсон, Хэнк Азария, Робин Уильямс, Кристофер Гест, Ален Шаба, Стив Куган, Джон Бернтал, Билл Хейдер, Рики Джервэйс, Патрик Галлахер, Джэйк Черри, Рами Малек, Мицуо Пек, Керри ван дер Грайнд, Мэттью Харрисон, Рик Добран, Рэнди Ли, Дэррил Квон, Джералд Вонг, Пол Чи-пинг Чэн, Джей Барушель, Минди Кейлинг, Кит Пауэлл, Крэйг Робинсон, Сэмюэл Патрик Чу, Огастус Ойкл, Кай Джеймс, Клинт Ховард
    Описание: Экспонаты Музея Естественной истории живут обычной жизнью. По коридорам бегает скелет динозавра, герои гражданской войны сражаются друг с другом, древние люди добывают огонь, миниатюрные ковбои выясняют отношения с древними Римлянами, Теодор Рузвельт философствует о смысле жизни и ухаживает за индианкой. Никто из этой разношерстной компании даже не представляет, что скоро им предстоит познакомиться с новыми экспонатами. Среди них окажется и та, что разобьет сердце охраннику Ларри.

    Качество фильма видео: BDRip-AVC
    Тип видео видео: MKV
    Информация о видео: x264, 1024x432 (2.40: 1), 23.976 fps, ~2035 kbps
    Информация о звуке: Russian 48 kHz, AC3, 5.1 ch, ~448.00 kbps avg |В. Котов|
    Информация о звуке 2: English 48 kHz, AC3, 5.1 ch, ~448.00 kbps avg |Английский|
    MediaInfo

    General
    Unique ID : 238034674095188175136659447659095169226 (0xB313CF87B1061035A17A1DE7DCD498CA)
    Complete name : C: все папки с рабочего столаNight at the Museum-2.2009.BDRip-AVC.AVO.Kotov.mkv
    Format : Matroska
    Format version : Version 4/Version 2
    File size : 2.14 GiB
    Duration : 1h 44mn
    Overall bit rate : 2 929 Kbps
    Encoded date : UTC 2015-10-28 14: 59: 36
    Writing application : mkvmerge v8.3.0 (;Over the Horizon;) 64bit
    Writing library : libebml v1.3.1 + libmatroska v1.4.2
    DURATION : 01: 44: 39.251000000
    NUMBER_OF_FRAMES : 1359
    NUMBER_OF_BYTES : 55674
    _STATISTICS_WRITING_APP : mkvmerge v8.3.0 (;Over the Horizon;) 64bit
    _STATISTICS_WRITING_DATE_UT : 2015-10-28 14: 59: 36
    _STATISTICS_TAGS : BPS DURATION NUMBER_OF_FRAMES NUMBER_OF_BYTES
    Video
    ID : 1
    Format : AVC
    Format/Info : Advanced Video Codec
    Format profile : High@L3.1
    Format settings, CABAC : Yes
    Format settings, ReFrames : 9 frames
    Codec ID : V_MPEG4/ISO/AVC
    Duration : 1h 44mn
    Bit rate : 2 035 Kbps
    Width : 1 024 pixels
    Height : 432 pixels
    Display aspect ratio : 2.40: 1
    Frame rate mode : Constant
    Frame rate : 23.976 fps
    Color space : YUV
    Chroma subsampling : 4: 2: 0
    Bit depth : 8 bits
    Scan type : Progressive
    Bits/(Pixel*Frame) : 0.192
    Stream size : 1.44 GiB (67%)
    Writing library : x264 core 92 r1510 33d382a
    Encoding settings : cabac=1/ref=9/deblock=1: 0: 0/analyse=0x3: 0x111/me=umh/subme=7/psy=1/psy_rd=1.00: 0.00/mixed_ref=1/me_range=16/chroma_me=1/trellis=2/8x8dct=1/cqm=0/deadzone=21, 11/fast_pskip=1/chroma_qp_offset=-2/threads=6/sliced_threads=0/nr=0/decimate=1/interlaced=0/constrained_intra=0/bframes=3/b_pyramid=2/b_adapt=1/b_bias=0/direct=3/wpredb=1/wpredp=2/keyint=250/keyint_min=25/scenecut=40/intra_refresh=0/rc_lookahead=60/rc=2pass/mbtree=1/bitrate=2035/ratetol=1.0/qcomp=0.60/qpmin=10/qpmax=51/qpstep=4/cplxblur=20.0/qblur=0.5/ip_ratio=1.40/aq=1: 1.00
    Default : Yes
    Forced : No
    Audio #1
    ID : 2
    Format : AC-3
    Format/Info : Audio Coding 3
    Mode extension : CM (complete main)
    Format settings, Endianness : Big
    Codec ID : A_AC3
    Duration : 1h 44mn
    Bit rate mode : Constant
    Bit rate : 448 Kbps
    Channel(s) : 6 channels
    Channel positions : Front: L C R, Side: L R, LFE
    Sampling rate : 48.0 KHz
    Compression mode : Lossy
    Stream size : 336 MiB (15%)
    Title : В.Котов
    Language : Russian
    Default : Yes
    Forced : No
    Audio #2
    ID : 3
    Format : AC-3
    Format/Info : Audio Coding 3
    Mode extension : CM (complete main)
    Format settings, Endianness : Big
    Codec ID : A_AC3
    Duration : 1h 44mn
    Bit rate mode : Constant
    Bit rate : 448 Kbps
    Channel(s) : 6 channels
    Channel positions : Front: L C R, Side: L R, LFE
    Sampling rate : 48.0 KHz
    Compression mode : Lossy
    Stream size : 336 MiB (15%)
    Language : English
    Default : No
    Forced : No
    Text
    ID : 4
    Format : UTF-8
    Codec ID : S_TEXT/UTF8
    Codec ID/Info : UTF-8 Plain Text
    Language : English
    Default : No
    Forced : No
    Скриншоты



    Релиз: Переулок Переводмана!

    Онлайн видео Ночь в музее 2


    Размер скачиваемого торрента: 2.14 GB (2301137506 Bytes)

    Ночь в музее 2/Night at the Museum: Battle of the Smithsonian (2009) BDRip-AVC | A
    загрузка...
    Рейтинг →
     (голосов: 1, оценка 3/5, голосовать можно 1 раз )

    Другие торренты по теме:

  • Ночь в музее / Night at the Museum (2006) BDRip 1080p от Freeisland
  • Ночь в музее 2 / Night at the Museum: Battle of the Smithsonian (2009) BDRip 1080p от Freeisland
  • Ночь в музее 3 секрет гробницы (2014) BDRip лицензия
  • Ночь в музее / Night at the Museum (2006) BDRip-AVC от NovaLan скачать через торрент бесплатно
  • Ночь в музее 2 / Night at the Museum: Battle of the Smithsonian (2009) BDRip-AVC | iPad | D
  • Ночь в музее: Дилогия / Night at the Museum: Dilogy (2006-2009) BDRip-AVC от HELLYWOOD | Лицензия скачать через торрент бесплатно
  • Ночь в музее: Секрет гробницы / Night at the Museum: Secret of the Tomb (2014) TS от UNIONGANG
  • Ночь в музее: Секрет гробницы / Night at the Museum: Secret of the Tomb (2014) BDRip 1080p | Звук с CAMRip скачать через торрент бесплатно


    • Комментарии (0):

      Информация

      Информация

        Посетители, находящиеся в группе Гости, не могут оставлять комментарии в данной новости.

        ↓ Меню



        ↓ Опрос

        А Вы добавили сайт в закладки?
        Да
        Не


        Top 10 за месяц (Фильмы)