.
Авторизация | Регистрация
Хочешь лучшие торренты? Добавь свой email!
Добавить
» » Семейство Белье / La famille Belier (2014) BDRip от New-Team скачать торрент бесплатно




    Семейство Белье / La famille Belier (2014) BDRip от New-Team скачать торрент бесплатно

    Опубликовал: Админ | Дата: 28-10-2015, 05:01 | Просмотров: 81



    Раздача является материалом, специально подготовленным и переведенным для new-team.org


    Снималось в: Франция, Бельгия
    Создали в: Canal+ fr, Centre du Cin?ma et de l;Audiovisuel de la F?d?ration Wallonie-Bruxelles, Cin?, D8, France 2 Cin?ma, France T?l?visions, Jerico, Le Tax Shelter du Gouvernement F?d?ral de Belgique, M6, Mars Films, Nexus Factory, Quarante 12 Films, Sofica Manon 4, uFund, uMedia Family, Vend?me Production
    Категория жанра: драма, комедия, музыка
    Создали в: 2014
    Время просмотра: 01: 45: 21
    Перевод текста: Авторский (одноголосый) Антон Алексеев
    Субтитры подготовлены: нет
    Оригинальная аудиодорожка: нет
    Главный режиссер: Эрик Лартиго/Eric Lartigau

    Актеры

    Карин Вьяр, Франсуа Дамиенс, Эрик Элмоснино, Луан Эмера, Роксана Дюран, Ilian Bergala, Luca Gelberg, Мар Содуп, Стефан Войтович, Жером Киршер...
    Описание:
    В семействе Белье все глухие, кроме 16-летней Паулы. Она является незаменимым переводчиком для родителей в повседневной работе на их ферме и при продаже их домашних сыров на рынке. Однажды, вдохновленная своим преподавателем музыки, который открыл в ней вокальный талант, Паула решает начать подготовку к прослушиванию для вокального курса, проходящего на французском радио в Париже. Этот выбор означает, что она должна покинуть свою семью, чтобы сделать свои первые шаги во взрослую жизнь.




    Источник: BDRemux 1080p La.Famille.Belier.2014.FRENCH.1080p.BluRay.AVC.DTS-HD.MA.5.1-WiHD
    Качество фильма видео: BDRip
    Тип видео видео: AVI
    Информация о видео: 624x336 (1.85: 1), 23.976 fps, XviD ~ 853 kbps avg, 0.170 bit/pixel
    Информация о звуке: 48 kHz, MP3, 2 ch, 128 kbps
    Дополнительно: На оригинальную дорожку наложен чистый голос перевода Антона Алексеева. Фильм разбит на главы, как на оригинальном Bluray диске.
    Раздача от:
    MediaInfo

    Общее
    Полное имя : Semeystvo.Bele.2014.BDRip-745_New-team_by_AVP_Studio.avi
    Формат : AVI
    Формат/Информация : Audio Video Interleave
    Размер файла : 747 Мбайт
    Продолжительность : 1 ч. 45 м.
    Общий поток : 991 Кбит/сек
    Программа кодирования : VirtualDubModRus 1.5.10.2 (build 2542/release)
    Библиотека кодирования : VirtualDubMod build 2542/release
    Видео
    Идентификатор : 0
    Формат : MPEG-4 Visual
    Профиль формата : Advanced Simple@L5
    Параметр BVOP формата : 1
    Параметр QPel формата : Нет
    Параметр GMC формата : Без точки перехода
    Параметр матрицы формата : Выборочная
    Идентификатор кодека : XVID
    Идентификатор кодека/Подсказка : XviD
    Продолжительность : 1 ч. 45 м.
    Битрейт : 853 Кбит/сек
    Ширина : 624 пикселя
    Высота : 336 пикселей
    Соотношение сторон : 1, 85: 1
    Частота кадров : 23, 976 кадра/сек
    Цветовое пространство : YUV
    Субдискретизация насыщенности : 4: 2: 0
    Битовая глубина : 8 бит
    Тип развёртки : Прогрессивная
    Метод сжатия : С потерями
    Бит/(Пиксели*Кадры) : 0.170
    Размер потока : 643 Мбайт (86%)
    Библиотека кодирования : XviD 73
    Аудио
    Идентификатор : 1
    Формат : MPEG Audio
    Версия формата : Version 1
    Профиль формата : Layer 3
    Режим : Joint stereo
    Расширение режима : MS Stereo
    Идентификатор кодека : 55
    Идентификатор кодека/Подсказка : MP3
    Продолжительность : 1 ч. 45 м.
    Вид битрейта : Постоянный
    Битрейт : 128 Кбит/сек
    Каналы : 2 канала
    Частота : 48, 0 КГц
    Метод сжатия : С потерями
    Размер потока : 96, 5 Мбайт (13%)
    Выравнивание : Соединение по промежуткам
    Продолжительность промежутка : 42 мс. (1, 00 видеокадр)
    Время предзагрузки промежутка : 504 мс

    Скриншоты:



    Залил: AVPStudio

    Онлайн видео Семейство Белье


    Размер скачиваемого торрента: 746.59 MB (782858240 Bytes)

    Семейство Белье/La famille Belier (2014) BDRip от New-Team
    загрузка...
    Рейтинг →
     (голосов: 1, оценка 4/5, голосовать можно 1 раз )

    Другие торренты по теме:

  • Семейство Белье / La famille Belier / 2014 / АП (Алексеев) / Blu-Ray Remux (1080p)
  • Семейство Белье / La famille Belier / 2014 / АП (Алексеев) / BDRip


    • Комментарии (0):

      Информация

      Информация

        Посетители, находящиеся в группе Гости, не могут оставлять комментарии в данной новости.

        ↓ Меню



        ↓ Опрос

        А Вы добавили сайт в закладки?
        Да
        Не


        Top 10 за месяц (Фильмы)