.
Авторизация | Регистрация
Хочешь лучшие торренты? Добавь свой email!
Добавить
» » Парень с нашего кладбища (2015) WEB-DLRip-AVC от Scarabey | iTunes скачать торрент бесплатно




    Парень с нашего кладбища (2015) WEB-DLRip-AVC от Scarabey | iTunes скачать торрент бесплатно

    Опубликовал: Админ | Дата: 28-10-2015, 05:00 | Просмотров: 101



    Создали в: 2015
    Снималось в: Россия
    Категория жанра: комедия, триллер
    Перевод текста: Не требуется iTunes
    Время просмотра: 01: 27: 22
    Субтитры: нет
    Главный режиссёр: Илья Чижиков, Антон Чижиков

    Актеры
    Александр Паль, Игорь Жижикин, Владимир Сычев, Александр Ильин, Кристина Казинская, Полина Шашуро, Алексей Онежен, Евгений Волоцкий
    Описание: Двадцатипятилетний провинциальный парень Коля приезжает в Москву к своему дяде. Ему нужно как можно быстрее отдать долг, который висит на нем с прошлого места работы, он готов работать каждый день. Точнее, каждую ночь. Так как дядя устраивает племянника ночным сторожем на… кладбище. Новый сторож приступает к первому дежурству, но к тому, что происходит на кладбище, когда стемнеет, он оказывается не готов. А впереди еще не одна ночь, и Коле нужно сделать выбор: разобраться с таинственными гостями или сбежать.
    Качество фильма видео: WEB-DLRip-AVC
    Тип видео видео: MKV
    Информация о видео: 1024х576, 24 fps, AVC, ~2459 kbps avg, 0.174 bit/pixel
    Информация о звуке: 48 kHz, AC3 Dolby Digital, 3/2 (L, C, R, l, r) + LFE ch, ~384 kbps
    Релиз подготовил:
    АНОНСЫ МОИХ РАЗДАЧ!


    Скриншоты

    МедиаИнфо
    Paren_s_nashego_kladbiwa_2015_AVC_WEB-DLRip_scarabey.org.mkv
    Format : Matroska
    Format version : Version 2
    File size : 1.73 GiB
    Duration : 1h 27mn
    Overall bit rate : 2 841 Kbps
    Encoded date : UTC 2015-10-26 14: 12: 23
    Writing application : mkvmerge v6.1.0 (;Old Devil;) built on Mar 4 2013 09: 10: 42
    Writing library : libebml v1.3.0 + libmatroska v1.4.0
    Video
    ID : 1
    Format : AVC
    Format/Info : Advanced Video Codec
    Format profile : High@L4.1
    Format settings, CABAC : Yes
    Format settings, ReFrames : 10 frames
    Codec ID : V_MPEG4/ISO/AVC
    Duration : 1h 27mn
    Bit rate : 2 459 Kbps
    Width : 1 024 pixels
    Height : 576 pixels
    Display aspect ratio : 16: 9
    Frame rate mode : Constant
    Frame rate : 24.000 fps
    Color space : YUV
    Chroma subsampling : 4: 2: 0
    Bit depth : 8 bits
    Scan type : Progressive
    Bits/(Pixel*Frame) : 0.174
    Stream size : 1.46 GiB (84%)
    Writing library : x264 core 148 r2597 e86f3a1
    Encoding settings : cabac=1/ref=10/deblock=1: -3: -2/analyse=0x3: 0x113/me=umh/subme=10/psy=1/psy_rd=1.00: 0.00/mixed_ref=1/me_range=32/chroma_me=1/trellis=2/8x8dct=1/cqm=0/deadzone=21, 11/fast_pskip=1/chroma_qp_offset=-2/threads=12/lookahead_threads=2/sliced_threads=0/nr=0/decimate=0/interlaced=0/bluray_compat=0/constrained_intra=0/bframes=8/b_pyramid=2/b_adapt=2/b_bias=0/direct=3/weightb=1/open_gop=0/weightp=2/keyint=240/keyint_min=24/scenecut=40/intra_refresh=0/rc_lookahead=40/rc=2pass/mbtree=1/bitrate=2459/ratetol=1.0/qcomp=0.60/qpmin=0/qpmax=69/qpstep=4/cplxblur=20.0/qblur=0.5/ip_ratio=1.40/aq=1: 1.00
    Default : Yes
    Forced : No
    Audio
    ID : 2
    Format : AC-3
    Format/Info : Audio Coding 3
    Mode extension : CM (complete main)
    Format settings, Endianness : Big
    Codec ID : A_AC3
    Duration : 1h 27mn
    Bit rate mode : Constant
    Bit rate : 384 Kbps
    Channel(s) : 6 channels
    Channel positions : Front: L C R, Side: L R, LFE
    Sampling rate : 48.0 KHz
    Bit depth : 16 bits
    Compression mode : Lossy
    Stream size : 240 MiB (14%)
    Default : Yes
    Forced : No

    Размер скачиваемого торрента: 1.73 GB (1861432653 Bytes)

    Парень с нашего кладбища (2015) WEB-DLRip-AVC от Scarabey | iTunes
    загрузка...
    Рейтинг →
     (голосов: 1, оценка 5/5, голосовать можно 1 раз )

    Другие торренты по теме:

  • Парень из нашего города / 1942 / РУ / DVDRip
  • Парень с нашего кладбища / 2015 / РУ / WEB-DLRip
  • Николай Крючков. Парень из нашего города / 2009 / РУ / SATRip
  • Парень с нашего кладбища (2015)
  • Парень из нашего города / 1942 / РУ / DVDRip
  • Парень с нашего кладбища (2015) WEB-DLRip от ImperiaFilm | КПК | iTunes
  • Парень из нашего города / 1942 / РУ / DVDRip (AVC)
  • Парень из нашего города / 1942 / РУ / DVDRip


    • Комментарии (0):

      Информация

      Информация

        Посетители, находящиеся в группе Гости, не могут оставлять комментарии в данной новости.

        ↓ Меню



        ↓ Опрос

        А Вы добавили сайт в закладки?
        Да
        Не


        Top 10 за месяц (Фильмы)