.
Авторизация | Регистрация
Хочешь лучшие торренты? Добавь свой email!
Добавить
» » С Днем Рождения меня / Happy Birthday to Me (1981) BDRip 720p | L1 скачать торрент бесплатно




    С Днем Рождения меня / Happy Birthday to Me (1981) BDRip 720p | L1 скачать торрент бесплатно

    Опубликовал: Админ | Дата: 26-10-2015, 05:01 | Просмотров: 155



    Детально о кино
    Русское название: С Днем Рождения меня
    Русское название в мировом прокате: Happy Birthday to Me
    Создали в: 1981
    Категория жанра: ужасы, триллер, детектив
    Главный режиссер: Дж. Ли Томпсон

    Актеры
    Мелисса Сью Андерсон, Гленн Форд, Лоуренс Дэйн, Шэрон Эккер, Фрэнсис Хайланд, Трэйси Э. Брегман, Джек Блум, Мэтт Крэвен, Ленор Занн, Дэвид Эйснер и др.

    Сюжет фильма

    У Вирджинии не за горами День рождения, ей исполняется 18 лет. Прошлый свой праздник она даже толком вспомнить не может, так как очутилась в реанимации. В тот раз она с матерью ждала друзей, но те в это время были на закрытой крутейшей вечеринке. Мать Вирджинии решила вместе с дочерью приехать туда и закатить скандал. Естественно их никто не пустил.
    Тогда они уезжают и на обратном пути не заметили предупреждение о разведённом мосте, вследствие чего машина падает в воду. Выбраться удается только девочке, но и здесь неудача — когда она всплывала то попала головой под винт корабля, но осталась в живых. И вот через год, незадолго до дня рождения, начинают пропадать ее друзья. Вирджинию мучают воспоминания прошлогодней давности. За ней присматривает доктор, который уверяет, что она здорова, просто сильно обеспокоена пропажей друзей. Вскоре становится понятно, что в этой местности появился маньяк, и что самое странное в жертвы он выбирает самых близких друзей Вирджинии.

    Снималось в: Канада
    Время просмотра: 01: 50: 43
    Перевод текста: Любительский (одноголосый, закадровый) Андрей Васильев
    Файл
    Кодек для видео: x264
    Качество фильма: BDRip 720p
    Информация о видео: 7173 kbps 1280x720p/23, 976 fps/High Profile 4.1
    Информация о звуке 1: Dolby Digital Audio Русский 2.0/48 kHz/192 kbps
    Информация о звуке 2: Английский/DTS Audio/5.1/48 kHz/1509 kbps/24-bit
    Субтитры: английские SDH
    Скриншоты

    MediInfo

    General
    Complete name : F: -= Фильмы =-С днем рождения меня (1981. Happy Birthday to Me).mkv
    Format : Matroska
    File size : 7.00 GiB
    Duration : 1h 50mn
    Overall bit rate : 9 051 Kbps
    Encoded date : UTC 2013-04-07 12: 02: 52
    Writing application : mkvmerge v4.9.1 (;Ich will;) сборка от Jul 11 2011 23: 53: 15
    Writing library : libebml v1.2.1 + libmatroska v1.1.1
    Video
    ID : 1
    Format : AVC
    Format/Info : Advanced Video Codec
    Format profile : High@L4.1
    Format settings, CABAC : Yes
    Format settings, ReFrames : 9 frames
    Muxing mode : Container profile=Unknown@4.1
    Codec ID : V_MPEG4/ISO/AVC
    Duration : 1h 50mn
    Bit rate : 7 169 Kbps
    Width : 1 280 pixels
    Height : 720 pixels
    Display aspect ratio : 16: 9
    Frame rate : 23.976 fps
    Color space : YUV
    Chroma subsampling : 4: 2: 0
    Bit depth : 8 bits
    Scan type : Progressive
    Bits/(Pixel*Frame) : 0.324
    Stream size : 5.54 GiB (79%)
    Title : Happy.Birthday.to.Me.1981.720p.BluRay.DTS.x264-ThD
    Writing library : x264 core 128 r2216kMod 198a7ea
    Encoding settings : cabac=1/ref=9/deblock=1: -3: -3/analyse=0x3: 0x133/me=umh/subme=9/psy=1/fade_compensate=0.00/psy_rd=1.15: 0.00/mixed_ref=1/me_range=64/chroma_me=1/trellis=2/8x8dct=1/cqm=0/deadzone=21, 11/fast_pskip=0/chroma_qp_offset=-2/threads=12/lookahead_threads=2/sliced_threads=0/nr=0/decimate=0/interlaced=0/bluray_compat=0/constrained_intra=0/bframes=10/b_pyramid=2/b_adapt=2/b_bias=0/direct=3/weightb=1/open_gop=0/weightp=2/keyint=250/keyint_min=23/scenecut=40/intra_refresh=0/rc=crf/mbtree=0/crf=19.0000/qcomp=0.85/qpmin=0/qpmax=69/qpstep=4/ip_ratio=1.30/pb_ratio=1.25/aq=2: 0.90
    Language : English
    Audio #1
    ID : 2
    Format : AC-3
    Format/Info : Audio Coding 3
    Mode extension : CM (complete main)
    Codec ID : A_AC3
    Duration : 1h 50mn
    Bit rate mode : Constant
    Bit rate : 192 Kbps
    Channel(s) : 2 channels
    Channel positions : Front: L R
    Sampling rate : 48.0 KHz
    Bit depth : 16 bits
    Stream size : 152 MiB (2%)
    Title : AVO Андрей Васильев
    Language : Russian
    Audio #2
    ID : 3
    Format : DTS
    Format/Info : Digital Theater Systems
    Codec ID : A_DTS
    Duration : 1h 50mn
    Bit rate mode : Constant
    Bit rate : 1 510 Kbps
    Channel(s) : 6 channels
    Channel positions : Front: L C R, Side: L R, LFE
    Sampling rate : 48.0 KHz
    Bit depth : 24 bits
    Stream size : 1.17 GiB (17%)
    Language : English
    Text
    ID : 4
    Format : UTF-8
    Codec ID : S_TEXT/UTF8
    Codec ID/Info : UTF-8 Plain Text
    Language : English
    Menu
    00: 00: 00.000 : en: Main Titles/Death in Black Gloves
    00: 05: 59.400 : en: Playing the Game
    00: 12: 44.263 : en: Night Prowler
    00: 22: 33.602 : en: Guinea Pig
    00: 29: 14.794 : en: Choking Hazard
    00: 32: 19.062 : en: Alfred;s Evil Deeds
    00: 41: 50.007 : en: Bench Press Peril
    00: 46: 59.233 : en: Virginia, I;ve Got a Knife....
    00: 55: 08.221 : en: Gruesome Garden
    01: 04: 00.336 : en: Blood Rose
    01: 11: 36.292 : en: Boogie Down
    01: 22: 39.204 : en: Skewered
    01: 33: 46.621 : en: Descent Into Madness
    01: 37: 57.454 : en: Family Secrets
    01: 44: 27.094 : en: Happy Birthday to Me


    Онлайн видео С Днем Рождения меня


    Размер скачиваемого торрента: 7.00 GB (7515620728 Bytes)

    С Днем Рождения меня/Happy Birthday to Me (1981) BDRip 720p | L1
    загрузка...
    Рейтинг →
     (голосов: 1, оценка 3/5, голосовать можно 1 раз )

    Другие торренты по теме:

  • С днем рождения! / 1996 / РУ / DVDRip
  • С днем рождения! (1996) DVDRip
  • С Днем Рождения меня / Happy Birthday to Me (1981) HDRip-AVC от Bathory | L1
  • Сборник - С днем рождения, Натали ! FLAC от DON Music


    • Комментарии (0):

      Информация

      Информация

        Посетители, находящиеся в группе Гости, не могут оставлять комментарии в данной новости.

        ↓ Меню



        ↓ Опрос

        А Вы добавили сайт в закладки?
        Да
        Не


        Top 10 за месяц (Фильмы)