.
Авторизация | Регистрация
Хочешь лучшие торренты? Добавь свой email!
Добавить
» » Хорошая пара / Two of a Kind (1983) DVDRip от New-Team скачать торрент бесплатно




    Хорошая пара / Two of a Kind (1983) DVDRip от New-Team скачать торрент бесплатно

    Опубликовал: Админ | Дата: 22-10-2015, 05:01 | Просмотров: 69



    Снималось в: США
    Создали в: 20th Century Fox Film Corporation, Joe Wizan-Roger M. Rothstein Production
    Категория жанра: комедия, мелодрама
    Создали в: 1983
    Время просмотра: 01: 24: 04
    Перевод текста: Профессиональный (многоголосый, закадровый)
    Оригинальная аудиодорожка: нет
    Субтитры подготовлены: нет
    Главный режиссер: Джон Херцфелд/John Herzfeld

    Актеры

    Джон Траволта, Оливия Ньютон-Джон, Чарльз Дёрнинг, Беатрис Стрэйт, Скэтмэн Крозерс, Ричард Брайт, Тони Кэлем, Эрни Хадсон, Джек Кихоу, Кастуло Гуэрра, Джилл Андре, Тед Гроссмэн, Винсент Буфано, Оливер Рид...
    Полный список актёров
    Описание:
    Господь Бог возвращается из отпуска и видит, что за его отсутствие в мире стало очень плохо. Он вызывает ангелов и заявляет, что собирается стереть с лица земли человеческую расу и начать все заново. Ангелы уговаривают Его изменить свое решение… И судьба Земли оказывается в руках конкретного человека, причем взятого наугад. Выбор падает на неудачливого изобретателя Зэка, который в компании с банковской служащей Дебби должен доказать, что человек не так уж плох, как кажется на первый взгляд…



    Исходник: DVD5 R5
    Тип релиза: DVDRip
    Контейнер: AVI
    Информация о видео: 704x384 (16: 9), 25 fps, XviD ~ 2024 kbps avg, 0.299 bit/pixel
    Информация о звуке: 48 kHz, Dolby AC3 5.1, 448 kbps
    Раздача от:
    MediaInfo

    Общее
    Полное имя : E: Tracker2013Хорошая параHoroshaya.para.1983.DVDRip_Youtracker_by_AVP Studio.avi
    Формат : AVI
    Формат/Информация : Audio Video Interleave
    Размер файла : 1, 46 Гбайт
    Продолжительность : 1 ч. 24 м.
    Общий поток : 2481 Кбит/сек
    Программа кодирования : VirtualDubMod 1.5.10.3 | www.virtualdub-fr.org || (build 2550/release)
    Библиотека кодирования : VirtualDubMod build 2550/release
    Видео
    Идентификатор : 0
    Формат : MPEG-4 Visual
    Профиль формата : Advanced Simple@L5
    Параметр BVOP формата : 1
    Параметр QPel формата : Нет
    Параметр GMC формата : Без точки перехода
    Параметр матрицы формата : Выборочная
    Идентификатор кодека : XVID
    Идентификатор кодека/Подсказка : XviD
    Продолжительность : 1 ч. 24 м.
    Битрейт : 2024 Кбит/сек
    Ширина : 704 пикселя
    Высота : 384 пикселя
    Соотношение сторон : 16: 9
    Частота кадров : 25, 000 кадров/сек
    Цветовое пространство : YUV
    Субдискретизация насыщенности : 4: 2: 0
    Битовая глубина : 8 бит
    Тип развёртки : Прогрессивная
    Метод сжатия : С потерями
    Бит/(Пиксели*Кадры) : 0.299
    Размер потока : 1, 19 Гбайт (82%)
    Библиотека кодирования : XviD 65
    Аудио
    Идентификатор : 1
    Формат : AC-3
    Формат/Информация : Audio Coding 3
    Расширение режима : CM (complete main)
    Идентификатор кодека : 2000
    Продолжительность : 1 ч. 24 м.
    Вид битрейта : Постоянный
    Битрейт : 448 Кбит/сек
    Каналы : 6 каналов
    Расположение каналов : Front: L C R, Side: L R, LFE
    Частота : 48, 0 КГц
    Битовая глубина : 16 бит
    Метод сжатия : С потерями
    Размер потока : 269 Мбайт (18%)
    Выравнивание : Разделение по промежуткам
    Продолжительность промежутка : 40 мс. (1, 00 видеокадр)
    Время предзагрузки промежутка : 500 мс

    Скриншоты



    Залил: AVPStudio

    Онлайн видео Хорошая пара


    Размер скачиваемого торрента: 1.46 GB (1564581888 Bytes)

    Хорошая пара/Two of a Kind (1983) DVDRip от New-Team
    загрузка...
    Рейтинг →
     (голосов: 1, оценка 4/5, голосовать можно 1 раз )

    Другие торренты по теме:

  • Хорошая пара / Two of a Kind (1983) DVDRip от Youtracker
  • Хорошая пара / Two of a Kind (1983) DVD5 R5 от New-Team скачать через торрент бесплатно


    • Комментарии (0):

      Информация

      Информация

        Посетители, находящиеся в группе Гости, не могут оставлять комментарии в данной новости.

        ↓ Меню



        ↓ Опрос

        А Вы добавили сайт в закладки?
        Да
        Не


        Top 10 за месяц (Фильмы)