.
Авторизация | Регистрация
Хочешь лучшие торренты? Добавь свой email!
Добавить
» » Кто там / Knock Knock (2015) HDRip | L2 скачать торрент бесплатно




    Кто там / Knock Knock (2015) HDRip | L2 скачать торрент бесплатно

    Опубликовал: Админ | Дата: 18-10-2015, 05:01 | Просмотров: 231



    Детально о кино
    Русское название: Кто там?
    Русское название в мировом прокате: Knock Knock
    Создали в: 2015
    Категория жанра: Триллер, ужасы
    Главный режиссер: Элай Рот

    Актеры
    Киану Ривз, Лоренца Иззо, Ана де Армас, Игнасия Алламанд, Аарон Барнс, Коллин Кэмп

    Сюжет фильма
    Отправив семью за город, архитектор Эван остается на выходных дома один доделывать срочный проект. К нему стучатся две милые молодые девушки лет двадцати, насквозь промокшие и заблудившиеся. Эван не мог предположить, что протянутая рука помощи обернется для него чередой изощренных издевательств, изысканных пыток и медленного садистского уничтожения семьи…


    Снималось в: Чили, США
    Время просмотра: 01: 39: 20
    Тип перевода: Любительское (двухголосое) Raim NastR
    Файл
    Тип видео: AVI (XviD)
    Качество фильма: HDRip
    Информация о видео: 911 kb/s, 720x304
    Информация о звуке: AC3, 128 kb/s (2 ch)
    Размер скачиваемого торрента: 745 MB
    Скачать: Сэмпл
    Media Info
    General
    Complete name : Xt0.TaM.2015.L2.HDRip.745MB.avi
    Format : AVI
    Format/Info : Audio Video Interleave
    File size : 745 MiB
    Duration : 1h 39mn
    Overall bit rate : 1 049 Kbps
    Writing application : VirtualDubMod 1.5.10.3 | www.virtualdub-fr.org || (build 2550/release)
    Writing library : VirtualDubMod build 2550/release
    Video
    ID : 0
    Format : MPEG-4 Visual
    Format profile : Advanced Simple@L5
    Format settings, BVOP : 2
    Format settings, QPel : No
    Format settings, GMC : No warppoints
    Format settings, Matrix : Default (MPEG)
    Codec ID : XVID
    Codec ID/Hint : XviD
    Duration : 1h 39mn
    Bit rate : 911 Kbps
    Width : 720 pixels
    Height : 304 pixels
    Display aspect ratio : 2.35: 1
    Frame rate : 23.976 fps
    Color space : YUV
    Chroma subsampling : 4: 2: 0
    Bit depth : 8 bits
    Scan type : Progressive
    Compression mode : Lossy
    Bits/(Pixel*Frame) : 0.174
    Stream size : 647 MiB (87%)
    Writing library : XviD 1.2.1 (UTC 2008-12-04)
    Audio
    ID : 1
    Format : AC-3
    Format/Info : Audio Coding 3
    Mode extension : CM (complete main)
    Format settings, Endianness : Big
    Codec ID : 2000
    Duration : 1h 39mn
    Bit rate mode : Constant
    Bit rate : 128 Kbps
    Channel(s) : 2 channels
    Channel positions : Front: L R
    Sampling rate : 48.0 KHz
    Compression mode : Lossy
    Stream size : 90.9 MiB (12%)
    Alignment : Split accross interleaves
    Interleave, duration : 42 ms (1.00 video frame)
    Interleave, preload duration : 500 ms
    Скриншоты | повтор:



    Онлайн видео Кто там


    Размер скачиваемого торрента: 745.12 MB (781316096 Bytes)

    Кто там/Knock Knock (2015) HDRip | L2
    загрузка...
    Рейтинг →
     (голосов: 1, оценка 4/5, голосовать можно 1 раз )

    Другие торренты по теме:

  • Тук-тук-тук / Knock-knock (2013) PC
  • Тук-тук-тук / Knock-knock (2013) PC | Лицензия
  • Тук-тук-тук / Knock-knock (2013) PC | Repack от =Чувак=
  • Тук-тук-тук / Knock-knock (2013) PC | RePack от R.G. Механики
  • Тук-тук-тук / Knock-knock (2014) Android скачать через торрент бесплатно
  • Кто там / Knock Knock (2015) WEB-DLRip | КПК | L1
  • Кто там / Knock Knock (2015) HDRip | L2
  • Кто там / Knock Knock / 2015 / ЛО / BDRip (1080p)


    • Комментарии (0):

      Информация

      Информация

        Посетители, находящиеся в группе Гости, не могут оставлять комментарии в данной новости.

        ↓ Меню



        ↓ Опрос

        А Вы добавили сайт в закладки?
        Да
        Не


        Top 10 за месяц (Фильмы)