.
Авторизация | Регистрация
Хочешь лучшие торренты? Добавь свой email!
Добавить
» » Терминатор: Генезис / Terminator: Genisys (2015) BDRip 720p от Scarabey | iTunes скачать торрент бесплатно




    Терминатор: Генезис / Terminator: Genisys (2015) BDRip 720p от Scarabey | iTunes скачать торрент бесплатно

    Опубликовал: Админ | Дата: 17-10-2015, 05:01 | Просмотров: 125



    Создали в: 2015
    Снималось в: США
    Категория жанра: фантастика, боевик, триллер, приключения
    Время просмотра: 02: 05: 43
    Перевод текста: Профессиональный (полное дублирование) iTunes
    Субтитры подготовлены: нет
    Главный режиссер: Алан Тейлор/Alan Taylor

    Актеры
    Арнольд Шварценеггер, Джейсон Кларк, Эмилия Кларк, Джай Кортни, Дж.К. Симмонс, Дайо Окенийи, Мэтт Смит, Кортни Б. Вэнс, Ли Бён Хон, Майкл Глэдис

    Описание фильма
    Когда Джон Коннор, лидер сопротивления, посылает сержанта Кайла Риза назад в 1984 год, чтобы защитить Сару Коннор и спасти будущее, неожиданный поворот событий создает разлом во времени. Сержант Риз оказывается в новой, незнакомой версии прошлого, где он встречает неожиданных союзников, в том числе Терминатора, новых опасных врагов, и новую миссию: изменить будущее…
    Качество фильма видео: BDRip 720p
    Тип видео видео: MKV
    Информация о видео: 1280х536, 23.976 fps, AVC, ~5289 kbps avg, 0.322 bit/pixel
    Информация о звуке: 48 kHz, AC3 Dolby Digital, 3/2 (L, C, R, l, r) + LFE ch, ~384.00 kbps avg
    Релиз подготовил:
    АНОНСЫ МОИХ РАЗДАЧ!


    Скриншоты

    МедиаИнфо

    Терминатор ГенезисTerminator_Genezis_720р_2015_BDRip__scarabey.org.mkv
    Format : Matroska
    Format version : Version 2
    File size : 4.98 GiB
    Duration : 2h 5mn
    Overall bit rate : 5 674 Kbps
    Encoded date : UTC 2015-09-28 14: 13: 19
    Writing application : mkvmerge v6.1.0 (;Old Devil;) built on Mar 4 2013 09: 10: 42
    Writing library : libebml v1.3.0 + libmatroska v1.4.0
    Video
    ID : 1
    Format : AVC
    Format/Info : Advanced Video Codec
    Format profile : High@L4.1
    Format settings, CABAC : Yes
    Format settings, ReFrames : 6 frames
    Codec ID : V_MPEG4/ISO/AVC
    Duration : 2h 5mn
    Bit rate : 5 289 Kbps
    Width : 1 280 pixels
    Height : 536 pixels
    Display aspect ratio : 2.35: 1
    Frame rate mode : Constant
    Frame rate : 23.976 fps
    Color space : YUV
    Chroma subsampling : 4: 2: 0
    Bit depth : 8 bits
    Scan type : Progressive
    Bits/(Pixel*Frame) : 0.322
    Stream size : 4.55 GiB (91%)
    Writing library : x264 core 138 r2356 a1d3d17
    Encoding settings : cabac=1/ref=6/deblock=1: -3: -3/analyse=0x3: 0x113/me=umh/subme=10/psy=1/psy_rd=1.00: 0.05/mixed_ref=1/me_range=32/chroma_me=1/trellis=2/8x8dct=1/cqm=0/deadzone=21, 11/fast_pskip=0/chroma_qp_offset=-3/threads=12/lookahead_threads=2/sliced_threads=0/nr=0/decimate=0/interlaced=0/bluray_compat=0/constrained_intra=0/bframes=8/b_pyramid=2/b_adapt=2/b_bias=0/direct=3/weightb=1/open_gop=0/weightp=2/keyint=240/keyint_min=24/scenecut=40/intra_refresh=0/rc_lookahead=40/rc=2pass/mbtree=1/bitrate=5289/ratetol=1.0/qcomp=0.60/qpmin=10/qpmax=51/qpstep=4/cplxblur=20.0/qblur=0.5/vbv_maxrate=50000/vbv_bufsize=50000/nal_hrd=none/ip_ratio=1.40/aq=1: 0.80
    Default : Yes
    Forced : No
    Audio
    ID : 2
    Format : AC-3
    Format/Info : Audio Coding 3
    Mode extension : CM (complete main)
    Format settings, Endianness : Big
    Codec ID : A_AC3
    Duration : 2h 5mn
    Bit rate mode : Constant
    Bit rate : 384 Kbps
    Channel(s) : 6 channels
    Channel positions : Front: L C R, Side: L R, LFE
    Sampling rate : 48.0 KHz
    Bit depth : 16 bits
    Compression mode : Lossy
    Stream size : 345 MiB (7%)
    Language : Russian
    Default : Yes
    Forced : No


    Онлайн видео Терминатор: Генезис


    Размер скачиваемого торрента: 4.98 GB (5349599335 Bytes)

    Терминатор: Генезис/Terminator: Genisys (2015) BDRip 720p от Scarabey | iTunes
    загрузка...
    Рейтинг →
     (голосов: 1, оценка 3/5, голосовать можно 1 раз )

    Другие торренты по теме:

  • Терминатор: Генезис / Terminator: Genisys (2015) DCPrip | 2K, Hi10P | Трейлеры
  • Терминатор: Генезис (2015) HDRip
  • Терминатор: Генезис / Terminator: Genisys (2015) WEBRip 1080p | Трейлер
  • Терминатор: Генезис / Terminator: Genisys (2015) WEBRip 1080p | Фрагменты
  • Терминатор: Генезис / Terminator: Genisys (2015) WEBRip 1080p | Фрагменты
  • OST - Терминатор: Генезис / Terminator: Genisys (2015) FLAC
  • Терминатор: Генезис / Terminator: Genisys (2015) CAMRip
  • Терминатор: Генезис / Terminator: Genisys (2015) CAMRip


    • Комментарии (0):

      Информация

      Информация

        Посетители, находящиеся в группе Гости, не могут оставлять комментарии в данной новости.

        ↓ Меню



        ↓ Опрос

        А Вы добавили сайт в закладки?
        Да
        Не


        Top 10 за месяц (Фильмы)