.
Авторизация | Регистрация
Хочешь лучшие торренты? Добавь свой email!
Добавить
» » Смертельная красотка / Fatal Beauty (1987) WEB-DLRip-AVC | P2, А скачать торрент бесплатно




    Смертельная красотка / Fatal Beauty (1987) WEB-DLRip-AVC | P2, А скачать торрент бесплатно

    Опубликовал: Админ | Дата: 17-10-2015, 05:01 | Просмотров: 108


    Смертельная красотка/Fatal Beauty (1987) WEB-DLRip-AVC

    Создали в: США, Япония/CST Telecommunications, Metro-Goldwyn-Mayer (MGM)
    Категория жанра: Комедия, Боевик
    Главный режиссер: Том Холланд
    Актеры: Вупи Голдберг, Сэм Эллиотт, Рубен Бладес, Харрис Юлин, Джон П. Райан, Дженнифер Уоррен, Брэд Дуриф, Майк Джолли, Чарльз Хэллахан, Дэвид Харрис

    Описание фильма

    Рита — полицейский, сотрудница отдела по борьбе с наркотиками. Мужественная женщина, практически в одиночку, выслеживает крупную банду наркодельцов, распространяющих смертельный наркотик, носящий название Роковая красотка…

    Релиз подготовил: FAGOT100(NNM-CLUB)
    Время просмотра: 01: 44: 21
    Качество фильма видео: WEB-DLRip-AVC
    Перевод текста: Профессиональный (двухголосый, закадровый) НТВ+, авторский (одноголосый, закадровый) А.Гаврилов
    Субтитры: отсутствуют
    Информация о видео: AVC, 1024x552 (16: 9), 23.976 fps, 2 700 Kbps (0.199 bit/pixel)
    Информация о звуке #1: AC-3, 48.0 KHz, 2 ch, 192 Kbps, CBR (Russian)
    Информация о звуке #2: AC-3, 48.0 KHz, 2 ch, 192 Kbps, CBR (Russian)
    Mediainfo:

    Формат : Matroska
    Версия формата : Version 4/Version 2
    Размер файла : 2, 29 Гбайт
    Продолжительность : 1 ч. 44 м.
    Общий поток : 3146 Кбит/сек
    Название фильма : Смертельная красотка
    Программа кодирования : XviD4PSP 7.0.152
    Библиотека кодирования : Lavf56.25.101
    Обложка : Cover
    ORIGINAL_TITLE : Fatal Beauty
    DATE : 1987
    GENRE : боевик, триллер, драма, комедия, криминал
    ENCODING_INFO : MATROSKA, WEBM MKV/H264 X264 CQ 17 Custom/AC3 COPY/AC3 COPY
    DEION : Рита — полицейский, сотрудница отдела по борьбе с наркотиками. Мужественная женщина, практически в одиночку, выслеживает крупную банду наркодельцов, распространяющих смертельный наркотик, носящий название Роковая красотка…
    ITUNEXTC : mpaa|R|400|
    ACTORS : Вупи Голдберг, Сэм Эллиотт, Рубен Бладес, Харрис Юлин, Джон П. Райан, Дженнифер Уоррен, Брэд Дуриф, Майк Джолли, Чарльз Хэллахан, Дэвид Харрис
    RATING : 6.1
    IMDB_RATING : 5.2
    Язык : und
    FILENAME : cover.png
    Видео
    Идентификатор : 1
    Формат : AVC
    Формат/Информация : Advanced Video Codec
    Профиль формата : High@L4.1
    Параметр CABAC формата : Да
    Параметр ReFrames формата : 10 кадров
    Идентификатор кодека : V_MPEG4/ISO/AVC
    Продолжительность : 1 ч. 44 м.
    Битрейт : 2700 Кбит/сек
    Ширина : 1024 пикселя
    Высота : 552 пикселя
    Соотношение сторон : 1, 85: 1
    Режим частоты кадров : Постоянный
    Частота кадров : 23, 976 кадра/сек
    Цветовое пространство : YUV
    Субдискретизация насыщенности : 4: 2: 0
    Битовая глубина : 8 бит
    Тип развёртки : Прогрессивная
    Бит/(Пиксели*Кадры) : 0.199
    Размер потока : 1, 97 Гбайт (86%)
    Заголовок : Fatal.Beauty.1987.
    Библиотека кодирования : x264 core 146 r2538M 121396c
    Настройки программы : cabac=1/ref=10/deblock=1: -3: -3/analyse=0x3: 0x113/me=umh/subme=9/psy=1/psy_rd=1, 10: 0, 00/mixed_ref=1/me_range=32/chroma_me=1/trellis=2/8x8dct=1/cqm=0/deadzone=21, 11/fast_pskip=0/chroma_qp_offset=-2/threads=12/lookahead_threads=2/sliced_threads=0/nr=0/decimate=0/interlaced=0/bluray_compat=0/constrained_intra=0/bframes=8/b_pyramid=2/b_adapt=2/b_bias=0/direct=3/weightb=1/open_gop=0/weightp=2/keyint=240/keyint_min=23/scenecut=40/intra_refresh=0/rc=cqp/mbtree=0/qp=17/ip_ratio=1, 40/pb_ratio=1, 30/aq=0
    Default : Да
    Forced : Нет
    Основные цвета : BT.709
    Характеристики трансфера : BT.709
    Коэффициенты матрицы : BT.709
    Аудио #1
    Идентификатор : 2
    Формат : AC-3
    Формат/Информация : Audio Coding 3
    Расширение режима : CM (complete main)
    Параметр Endianness формата : Big
    Идентификатор кодека : A_AC3
    Продолжительность : 1 ч. 44 м.
    Вид битрейта : Постоянный
    Битрейт : 192 Кбит/сек
    Каналы : 2 канала
    Расположение каналов : Front: L R
    Частота : 48, 0 КГц
    Битовая глубина : 16 бит
    Метод сжатия : С потерями
    Размер потока : 143 Мбайт (6%)
    Заголовок : DVO @ НТВ+
    Язык : Russian
    Default : Да
    Forced : Нет
    Аудио #2
    Идентификатор : 3
    Формат : AC-3
    Формат/Информация : Audio Coding 3
    Расширение режима : CM (complete main)
    Параметр Endianness формата : Big
    Идентификатор кодека : A_AC3
    Продолжительность : 1 ч. 44 м.
    Вид битрейта : Постоянный
    Битрейт : 192 Кбит/сек
    Каналы : 2 канала
    Расположение каналов : Front: L R
    Частота : 48, 0 КГц
    Битовая глубина : 16 бит
    Метод сжатия : С потерями
    Размер потока : 143 Мбайт (6%)
    Заголовок : AVO @ Андрей Гаврилов
    Язык : Russian
    Default : Нет
    Forced : Нет
    Меню
    00: 00: 00.000 : : Chapter 1
    00: 12: 04.000 : : Chapter 2
    00: 26: 43.000 : : Chapter 3
    00: 38: 28.000 : : Chapter 4
    00: 50: 58.000 : : Chapter 5
    01: 05: 09.000 : : Chapter 6
    01: 20: 33.000 : : Chapter 7
    01: 30: 16.000 : : Chapter 8

    Скриншоты:


    Онлайн видео Смертельная красотка


    Размер скачиваемого торрента: 2.29 GB (2459997203 Bytes)

    Смертельная красотка/Fatal Beauty (1987) WEB-DLRip-AVC | P2, А
    загрузка...
    Рейтинг →
     (голосов: 1, оценка 5/5, голосовать можно 1 раз )

    Другие торренты по теме:

  • Смертельная красотка (Роковая красотка) / Fatal Beauty / 1987 / ПД, АП (Гаврилов) / WEB-DL (720p)
  • Смертельная красотка / Fatal Beauty (1987) BDRip 1080p | P2, A
  • Смертельная красотка / Fatal Beauty (1987) HDRip | P2
  • Смертельная красотка / Fatal Beauty (1987) HDRip-AVC | P2, A


    • Комментарии (0):

      Информация

      Информация

        Посетители, находящиеся в группе Гости, не могут оставлять комментарии в данной новости.

        ↓ Меню



        ↓ Опрос

        А Вы добавили сайт в закладки?
        Да
        Не


        Top 10 за месяц (Фильмы)