.
Авторизация | Регистрация
Хочешь лучшие торренты? Добавь свой email!
Добавить
» » Техасская резня бензопилой 4: Новое поколение / Texas Chainsaw Massacre: The Next Generation (1994) DVDRip-AVC | P скачать торрент бесплатно




    Техасская резня бензопилой 4: Новое поколение / Texas Chainsaw Massacre: The Next Generation (1994) DVDRip-AVC | P скачать торрент бесплатно

    Опубликовал: Админ | Дата: 16-10-2015, 05:01 | Просмотров: 88


    Техасская резня бензопилой 4: Новое поколение/Texas Chainsaw Massacre: The Next Generation (1994) DVDRip-AVC

    Создали в: США/Genre Pictures, Return Productions, Ultra Muchos Productions
    Категория жанра: Ужасы, Триллер, Комедия
    Главный режиссер: Ким Хенкел
    Актеры: Рене Зеллвегер, Мэттью МакКонахи, Роберт Джекс, Тони Перенски, Джо Стивенс, Лиза Мари Ньюмайер, Джон Харрисон, Тайлер Коун, Джеймс Гэйл, Крис Килгор

    Описание фильма

    Все началось в 1973, когда маньяк с бензопилой терроризировал весь мир. Многие годы он молчал… И сейчас его пила взвыла снова!
    В лесных дебрях незнакомцев поджидает семейка маньяков и психопатов — они не родственники, но составляют клан, объединенный общей страстью к разрушению, боли и смерти.

    Дата мировой премьеры: 7 октября 1994
    Релиз подготовил: FAGOT100(NNM-CLUB)
    Время просмотра: 01: 26: 52
    Качество фильма видео: DVDRip-AVC
    Перевод текста: Профессиональный (многоголосый, закадровый)
    Субтитры: отсутствуют
    Информация о видео: AVC, 720x400 (16: 9), 29.970 fps, 2 061 Kbps (0.239 bit/pixel)
    Информация о звуке: AC-3, 48.0 KHz, 2 ch, 448 Kbps, CBR (Russian)
    Скриншоты:

    Mediainfo:

    Формат : Matroska
    Версия формата : Version 2
    Размер файла : 1, 55 Гбайт
    Продолжительность : 1 ч. 26 м.
    Общий поток : 2560 Кбит/сек
    Дата кодирования : UTC 2015-10-15 03: 47: 31
    Программа кодирования : mkvmerge v5.3.0 (;I could have danced;) built on Feb 9 2012 10: 38: 07
    Библиотека кодирования : libebml v1.2.3 + libmatroska v1.3.0
    Attachment : Yes
    Видео
    Идентификатор : 1
    Формат : AVC
    Формат/Информация : Advanced Video Codec
    Профиль формата : High@L4.1
    Параметр CABAC формата : Да
    Параметр ReFrames формата : 10 кадров
    Идентификатор кодека : V_MPEG4/ISO/AVC
    Продолжительность : 1 ч. 26 м.
    Битрейт : 2061 Кбит/сек
    Ширина : 720 пикселей
    Высота : 400 пикселей
    Соотношение сторон : 16: 9
    Режим частоты кадров : Постоянный
    Частота кадров : 29, 970 кадров/сек
    Цветовое пространство : YUV
    Субдискретизация насыщенности : 4: 2: 0
    Битовая глубина : 8 бит
    Тип развёртки : Прогрессивная
    Бит/(Пиксели*Кадры) : 0.239
    Размер потока : 1, 25 Гбайт (81%)
    Библиотека кодирования : x264 core 146 r2538M 121396c
    Настройки программы : cabac=1/ref=10/deblock=1: -3: -3/analyse=0x3: 0x113/me=umh/subme=9/psy=1/psy_rd=1, 10: 0, 00/mixed_ref=1/me_range=32/chroma_me=1/trellis=2/8x8dct=1/cqm=0/deadzone=21, 11/fast_pskip=0/chroma_qp_offset=-2/threads=12/lookahead_threads=2/sliced_threads=0/nr=0/decimate=0/interlaced=0/bluray_compat=0/constrained_intra=0/bframes=8/b_pyramid=2/b_adapt=2/b_bias=0/direct=3/weightb=1/open_gop=0/weightp=2/keyint=250/keyint_min=23/scenecut=40/intra_refresh=0/rc=cqp/mbtree=0/qp=17/ip_ratio=1, 40/pb_ratio=1, 30/aq=0
    Default : Да
    Forced : Нет
    Аудио
    Идентификатор : 2
    Формат : AC-3
    Формат/Информация : Audio Coding 3
    Расширение режима : CM (complete main)
    Параметр Endianness формата : Big
    Идентификатор кодека : A_AC3
    Продолжительность : 1 ч. 26 м.
    Вид битрейта : Постоянный
    Битрейт : 448 Кбит/сек
    Каналы : 2 канала
    Расположение каналов : Front: L R
    Частота : 48, 0 КГц
    Битовая глубина : 16 бит
    Метод сжатия : С потерями
    Размер потока : 278 Мбайт (18%)
    Язык : Russian
    Default : Да
    Forced : Нет
    Меню
    00: 00: 00.000 : : Chapter 1/: Chapter 29
    00: 04: 05.342 : : Chapter 2/: Chapter 30
    00: 07: 35.777 : : Chapter 3
    00: 11: 53.224 : : Chapter 4
    00: 13: 57.414 : : Chapter 5
    00: 16: 29.627 : : Chapter 6
    00: 18: 19.032 : : Chapter 7
    00: 27: 08.758 : : Chapter 8
    00: 31: 54.172 : : Chapter 9
    00: 32: 15.440 : : Chapter 10
    00: 35: 22.827 : : Chapter 11
    00: 37: 23.112 : : Chapter 12
    00: 42: 14.623 : : Chapter 13
    00: 44: 12.815 : : Chapter 14
    00: 45: 53.144 : : Chapter 15
    00: 48: 10.616 : : Chapter 16
    00: 49: 19.007 : : Chapter 17
    00: 50: 48.313 : : Chapter 18
    00: 54: 20.564 : : Chapter 19
    00: 57: 18.774 : : Chapter 20
    01: 01: 11.225 : : Chapter 21
    01: 04: 43.609 : : Chapter 22
    01: 09: 49.981 : : Chapter 23
    01: 15: 44.600 : : Chapter 24
    01: 17: 54.907 : : Chapter 25
    01: 19: 41.199 : : Chapter 26
    01: 20: 35.449 : : Chapter 27


    Онлайн видео Техасская резня бензопилой 4: Новое поколение


    Размер скачиваемого торрента: 1.55 GB (1667845070 Bytes)

    Техасская резня бензопилой 4: Новое поколение/Texas Chainsaw Massacre: The Next Generation (1994) DVDRip-AVC | P
    загрузка...
    Рейтинг →
     (голосов: 1, оценка 4/5, голосовать можно 1 раз )

    Другие торренты по теме:

  • Техасская резня бензопилой 3D / Texas Chainsaw 3D (2013) CAMRip
  • Техасская резня бензопилой 3: Кожаное лицо / Leatherface: Texas Chainsaw Massacre III (1990) DVDRip
  • Техасская резня бензопилой 2 / The Texas Chainsaw Massacre 2 (1986) BDRip от HQCLUB
  • Техасская резня бензопилой 4: Новое поколение / Texas Chainsaw Massacre: The Next Generation (1994) DVD5
  • Техасская резня бензопилой / The Texas Chainsaw Massacre (2003) BDRip | A скачать через торрент бесплатно
  • Техасская резня бензопилой 3D / Texas Chainsaw 3D (2013) BDRip 1080p | 3D-Video | halfOU | LD L1 скачать через торрент бесплатно
  • Техасская резня бензопилой / The Texas Chain Saw Massacre (1974) BDRip-AVC от MediaClub | P2, A, P1
  • Техасская резня бензопилой / The Texas Chain Saw Massacre (1974) BDRip 720p от MediaClub | P2, A, P


    • Комментарии (0):

      Информация

      Информация

        Посетители, находящиеся в группе Гости, не могут оставлять комментарии в данной новости.

        ↓ Меню



        ↓ Опрос

        А Вы добавили сайт в закладки?
        Да
        Не


        Top 10 за месяц (Фильмы)