.
Авторизация | Регистрация
Хочешь лучшие торренты? Добавь свой email!
Добавить
» » Битва за Мён Рян / Myeong-ryang (2014) DVD-9 от NovaLan скачать торрент бесплатно




    Битва за Мён Рян / Myeong-ryang (2014) DVD-9 от NovaLan скачать торрент бесплатно

    Опубликовал: Админ | Дата: 14-10-2015, 05:01 | Просмотров: 144



    Детально о кино
    Русское название: Битва за Мён Рян/Адмирал
    Русское название в мировом прокате: Myeong-ryang/The Admiral
    Создали в: 2014
    Категория жанра: Приключения, военный, биография
    Главный режиссер: Хан Мин Ким

    Актеры
    Мин Сик Чхве, Сын Рён Рю, Мён Гон Ким, Чжин Гу, Чжин Ун Чо, Юл Квон, Чон Хён Ли, Мин У Но, Тхэ Хун Ким, Рёхеи Отани, Бо Гом Пак, Сын Чжун Ли, Гён Пё Го, Док Мун Чхве

    Сюжет фильма
    Фильм рассказывает об известной битве за Мён Рян, состоявшейся в 1597 году во время японского вторжения в Корею. Тогда культовому адмиралу Ли Сунсину удалось уничтожить 133 японских корабля имея флот всего в 13 кораблей.

    Время просмотра: 02: 08: 46
    Перевод текста: Любительский двухголосый (Ворон Wenlana), любительский одноголосый (Green Tea)
    Файл
    Кодек для видео: MPEG-2
    Качество фильма: DVD-9
    Информация о видео: MPEG2, PAL 16: 9 (720x576) VBR, 24, 000 кадра/сек
    Информация о звуке: Русский/Английский/Корейский DD 5.1 (384 Kbps), Русский DD 2.0 (192 Kbps)
    Меню
    DVDInfo
    Title:
    Size: 7.80 Gb ( 8 178 788 KBytes ) - DVD-9
    Enabled regions: 1, 2, 3, 4, 5, 6, 7, 8
    VTS_01 :
    Play Length: 02: 08: 46
    Video: PAL 16: 9 (720x576) VBR, Auto PanScan
    Audio:
    Russian (Dolby AC3, 6 ch)
    Russian (Dolby AC3, 2 ch)
    English (Dolby AC3, 6 ch)
    Korean (Dolby AC3, 6 ch)
    Menu Video:
    PAL 4: 3 (704x576) VBR
    Menu English Language Unit :
    Root Menu
    MediaInfo
    Идентификатор : 224 (0xE0)
    Формат : MPEG Video
    Версия формата : Version 2
    Профиль формата : Main@Main
    Параметр BVOP формата : Да
    Параметр матрицы формата : По умолчанию
    Параметр GOP формата : M=3, N=12
    Продолжительность : 16 м.
    Вид битрейта : Переменный
    Битрейт : 6697 Кбит/сек
    Максимальный битрейт : 7872 Кбит/сек
    Ширина : 720 пикселей
    Высота : 576 пикселей
    Соотношение сторон : 16: 9
    Частота кадров : 24, 000 кадра/сек
    Стандарт вещания : PAL
    Цветовое пространство : YUV
    Субдискретизация насыщенности : 4: 2: 0
    Битовая глубина : 8 бит
    Тип развёртки : Прогрессивная
    Порядок развёртки : 2: 2: 2: 2: 2: 2: 2: 2: 2: 2: 2: 3 Pulldown
    Метод сжатия : С потерями
    Бит/(Пиксели*Кадры) : 0.673
    TimeCode_FirstFrame : 00: 00: 00: 00
    TimeCode_Source : Group of pictures t_head
    Размер потока : 798 Мбайт (80%)
    Аудио #1
    Идентификатор : 189 (0xBD)-128 (0x80)
    Формат : AC-3
    Формат/Информация : Audio Coding 3
    Расширение режима : CM (complete main)
    Параметр Endianness формата : Big
    Режим смешивания : DVD-Video
    Продолжительность : 16 м.
    Вид битрейта : Постоянный
    Битрейт : 448 Кбит/сек
    Каналы : 6 каналов
    Расположение каналов : Front: L C R, Side: L R, LFE
    Частота : 48, 0 КГц
    Битовая глубина : 16 бит
    Метод сжатия : С потерями
    Размер потока : 53, 3 Мбайт (5%)
    Аудио #2
    Идентификатор : 189 (0xBD)-129 (0x81)
    Формат : AC-3
    Формат/Информация : Audio Coding 3
    Расширение режима : CM (complete main)
    Параметр Endianness формата : Big
    Режим смешивания : DVD-Video
    Продолжительность : 16 м.
    Вид битрейта : Постоянный
    Битрейт : 192 Кбит/сек
    Каналы : 2 канала
    Расположение каналов : Front: L R
    Частота : 48, 0 КГц
    Битовая глубина : 16 бит
    Метод сжатия : С потерями
    Размер потока : 22, 9 Мбайт (2%)
    Аудио #3
    Идентификатор : 189 (0xBD)-130 (0x82)
    Формат : AC-3
    Формат/Информация : Audio Coding 3
    Расширение режима : CM (complete main)
    Параметр Endianness формата : Big
    Режим смешивания : DVD-Video
    Продолжительность : 16 м.
    Вид битрейта : Постоянный
    Битрейт : 448 Кбит/сек
    Каналы : 6 каналов
    Расположение каналов : Front: L C R, Side: L R, LFE
    Частота : 48, 0 КГц
    Битовая глубина : 16 бит
    Метод сжатия : С потерями
    Размер потока : 53, 3 Мбайт (5%)
    Аудио #4
    Идентификатор : 189 (0xBD)-131 (0x83)
    Формат : AC-3
    Формат/Информация : Audio Coding 3
    Расширение режима : CM (complete main)
    Параметр Endianness формата : Big
    Режим смешивания : DVD-Video
    Продолжительность : 16 м.
    Вид битрейта : Постоянный
    Битрейт : 448 Кбит/сек
    Каналы : 6 каналов
    Расположение каналов : Front: L C R, Side: L R, LFE
    Частота : 48, 0 КГц
    Битовая глубина : 16 бит
    Метод сжатия : С потерями
    Размер потока : 53, 3 Мбайт (5%)
    Меню


    Скриншоты

    Релиз: 089233
    Залил: YArl

    Онлайн видео Битва за Мён Рян


    Размер скачиваемого торрента: 7.80 GB (8375078912 Bytes)

    Битва за Мён Рян/Myeong-ryang (2014) DVD-9 от NovaLan
    загрузка...
    Рейтинг →
     (голосов: 1, оценка 3/5, голосовать можно 1 раз )

    Другие торренты по теме:

  • Битва за Мён Рян / Myeong-ryang (2014) HDTVRip | L1 скачать через торрент бесплатно
  • Адмирал: Битва за Мён Рян / Myeong-ryang / The Admiral: Roaring Currents (2014) HDRip | L1
  • Битва за Мён Рян / Myeong-ryang (2014) BDRip 1080p | L1
  • Битва за Мён Рян / Myeong-ryang (2014) HDRip | L2
  • Битва за Мён Рян / Myeong-ryang (2014) BDRip 1080p | L2, L1
  • Битва за Мён Рян / Myeong-ryang (2014) BDRip 720p | L2, L1


    • Комментарии (0):

      Информация

      Информация

        Посетители, находящиеся в группе Гости, не могут оставлять комментарии в данной новости.

        ↓ Меню



        ↓ Опрос

        А Вы добавили сайт в закладки?
        Да
        Не


        Top 10 за месяц (Фильмы)