.
Авторизация | Регистрация
Хочешь лучшие торренты? Добавь свой email!
Добавить
» » Частное пионерское (2013) HDTVRip от New-Team скачать торрент бесплатно




    Частное пионерское (2013) HDTVRip от New-Team скачать торрент бесплатно

    Опубликовал: Админ | Дата: 14-10-2015, 05:01 | Просмотров: 146


    Долг, дружба, любовь... Что важнее?


    Снималось в: Россия
    Создали в: ООО ТО Кинопрограмма ХХI век
    Категория жанра: детский, приключения
    Создали в: 2013
    Время просмотра: 01: 40: 18
    Перевод текста: не требуется
    Оригинальная аудиодорожка: нет
    Субтитры подготовлены: нет
    Главный режиссер: Александр Карпиловский

    Актеры

    Семен Трескунов, Егор Клинаев, Анфиса Вистингаузен, Юлия Рутберг, Светлана Иванова, Владимир Зайцев, Ирина Линдт, Раиса Рязанова, Роман Мадянов, Евгений Мундум, Валентин Садики, Анастасия Добрынина, Екатерина Дурова, Тимофей Трибунцев, Михаил Васьков, Юлия Полынская, Александр Никольский, Вероника Лысакова, Пётр Ступин, Артём Алексеев, Сергей Походаев, Валера Бажибин, Максим Тихонов, Дмитрий Воронцов...
    Полный список актёров
    Описание:
    Мишка и его верный друг Димка – школьники. Они готовятся к празднованию дня рождения пионерской организации. На рыбалке Мишка падает в реку, но его спасает бездомная собака, с которой ребята очень подружились... Неожиданно собака попадает к скорняку, и только помощь друзей может избавить её от неминуемой гибели. Перед Мишкой и Димкой встает непростой выбор - участие в пионерском празднике или спасение собаки ... Долг, дружба, любовь... Что важнее?



    Исходник: HDTV 1080i
    Тип релиза: HDTVRip
    Контейнер: AVI
    Информация о видео: 720x304 (2, 35: 1), 25 fps, XviD ~ 902 kbps avg, 0.165 bit/pixel
    Информация о звуке: 48 kHz, MP3 2.0, 128 kbps
    Раздача от:
    MediaInfo

    Общее
    Полное имя : Chastnoe.pionerskoe.2013.HDTVRip-745_New-team_by_AVP_Studio.avi
    Формат : AVI
    Формат/Информация : Audio Video Interleave
    Размер файла : 746 Мбайт
    Продолжительность : 1 ч. 40 м.
    Общий поток : 1040 Кбит/сек
    Программа кодирования : VirtualDubMod 1.5.10.3 | www.virtualdub-fr.org || (build 2550/release)
    Библиотека кодирования : VirtualDubMod build 2550/release
    Видео
    Идентификатор : 0
    Формат : MPEG-4 Visual
    Профиль формата : Advanced Simple@L5
    Параметр BVOP формата : 1
    Параметр QPel формата : Нет
    Параметр GMC формата : Без точки перехода
    Параметр матрицы формата : Выборочная
    Идентификатор кодека : XVID
    Идентификатор кодека/Подсказка : XviD
    Продолжительность : 1 ч. 40 м.
    Битрейт : 902 Кбит/сек
    Ширина : 720 пикселей
    Высота : 304 пикселя
    Соотношение сторон : 2, 35: 1
    Частота кадров : 25, 000 кадров/сек
    Цветовое пространство : YUV
    Субдискретизация насыщенности : 4: 2: 0
    Битовая глубина : 8 бит
    Тип развёртки : Прогрессивная
    Метод сжатия : С потерями
    Бит/(Пиксели*Кадры) : 0.165
    Размер потока : 647 Мбайт (87%)
    Библиотека кодирования : XviD 73
    Аудио
    Идентификатор : 1
    Формат : MPEG Audio
    Версия формата : Version 1
    Профиль формата : Layer 3
    Идентификатор кодека : 55
    Идентификатор кодека/Подсказка : MP3
    Продолжительность : 1 ч. 40 м.
    Вид битрейта : Постоянный
    Битрейт : 128 Кбит/сек
    Каналы : 2 канала
    Частота : 48, 0 КГц
    Метод сжатия : С потерями
    Размер потока : 91, 8 Мбайт (12%)
    Выравнивание : Соединение по промежуткам
    Продолжительность промежутка : 40 мс. (1, 00 видеокадр)
    Время предзагрузки промежутка : 504 мс.
    Библиотека кодирования : LAME3.99r
    Залил: AVPStudio

    Онлайн видео Частное пионерское (2013) HDTVRip от New


    Размер скачиваемого торрента: 745.76 MB (781989888 Bytes)


    Частное пионерское (2013) HDTVRip от New-Team
    загрузка...
    Рейтинг →
     (голосов: 1, оценка 3/5, голосовать можно 1 раз )

    Другие торренты по теме:

  • Частное пионерское (2013) SATRip
  • Частное пионерское 2 (2015)
  • Частное пионерское 2 (2015) WEB-DLRip от New-Team
  • Частное пионерское 2 (2015) WEB-DLRip от MegaPeer
  • Частное пионерское 2 (2015) WEB-DLRip 720p от New-Team
  • Частное пионерское 2 (2015) WEB-DLRip от Scarabey


    • Комментарии (0):

      Информация

      Информация

        Посетители, находящиеся в группе Гости, не могут оставлять комментарии в данной новости.

        ↓ Меню



        ↓ Опрос

        А Вы добавили сайт в закладки?
        Да
        Не


        Top 10 за месяц (Фильмы)