.
Авторизация | Регистрация
Хочешь лучшие торренты? Добавь свой email!
Добавить
» » Вся правда о мужчинах / Separation City (2009) DVDRip | Лицензия скачать торрент бесплатно




    Вся правда о мужчинах / Separation City (2009) DVDRip | Лицензия скачать торрент бесплатно

    Опубликовал: Админ | Дата: 9-10-2015, 05:00 | Просмотров: 116



    Детально о кино
    Русское название: Вся правда о мужчинах
    Русское название в мировом прокате: Separation City
    Создали в: 2009
    Категория жанра: драма, мелодрама, комедия
    Главный режиссер: Пол Миддледитч/Paul Middleditch

    Актеры
    Джоэл Эдгертон, Рона Митра, Даниэль Кормак, Лес Хилл, Томас Кречманн, Алан Ловелл, Мишель Лэнстоун

    Сюжет фильма

    После рождения двух детей, брак Саймона и Пэм превращается в скучное и безрадостное подобие семейной жизни. Саймон, уставший от невыносимости быта, влюбляется в молодую и невероятно красивую Кэтрин. У них закручивается жаркий роман. В этом водовороте событий и отношений и рождается правда. Вся правда о мужчинах.

    Снималось в: Новая Зеландия
    Киностудия: Eltham Strathmore Pictures, K5 Film, New Holland Pictures
    Время просмотра: 01: 41: 53
    Перевод текста: Профессиональный (многоголосый закадровый) | Лицензия
    Файл
    Кодек для видео: XviD/MP3
    Качество фильма: DVDRip
    Информация о видео: XviD, 688x304 (2.25: 1), 25.000 fps, 885 Kbps (0.169 bit/pixel)
    Информация о звуке: MP3, 48.0 KHz, 2 ch, 128 Kbps, CBR
    MediaInfo
    General
    Complete name : E: Separation.City_Rutor.org.avi
    Format : AVI
    Format/Info : Audio Video Interleave
    File size : 745 MiB
    Duration : 1h 41mn
    Overall bit rate : 1 023 Kbps
    Writing application : VirtualDubMod 1.5.10.3 | www.virtualdub-fr.org || (build 2550/release)
    Writing library : VirtualDubMod build 2550/release
    Video
    ID : 0
    Format : MPEG-4 Visual
    Format profile : Advanced Simple@L5
    Format settings, BVOP : 1
    Format settings, QPel : No
    Format settings, GMC : No warppoints
    Format settings, Matrix : Custom
    Codec ID : XVID
    Codec ID/Hint : XviD
    Duration : 1h 41mn
    Bit rate : 885 Kbps
    Width : 688 pixels
    Height : 304 pixels
    Display aspect ratio : 2.25: 1
    Frame rate : 25.000 fps
    Color space : YUV
    Chroma subsampling : 4: 2: 0
    Bit depth : 8 bits
    Scan type : Progressive
    Compression mode : Lossy
    Bits/(Pixel*Frame) : 0.169
    Stream size : 645 MiB (87%)
    Writing library : XviD 1.2.1 (UTC 2008-12-04)
    Audio
    ID : 1
    Format : MPEG Audio
    Format version : Version 1
    Format profile : Layer 3
    Codec ID : 55
    Codec ID/Hint : MP3
    Duration : 1h 41mn
    Bit rate mode : Constant
    Bit rate : 128 Kbps
    Channel(s) : 2 channels
    Sampling rate : 48.0 KHz
    Compression mode : Lossy
    Stream size : 93.3 MiB (13%)
    Alignment : Aligned on interleaves
    Interleave, duration : 40 ms (1.00 video frame)
    Interleave, preload duration : 504 ms
    Writing library : LAME3.98r
    Encoding settings : -m s -V 4 -q 2 -lowpass 17 -b 128

    Скриншоты


    Онлайн видео Вся правда о мужчинах


    Размер скачиваемого торрента: 745.26 MB (781465600 Bytes)

    Вся правда о мужчинах/Separation City (2009) DVDRip | Лицензия
    загрузка...
    Рейтинг →
     (голосов: 1, оценка 3/5, голосовать можно 1 раз )

    Другие торренты по теме:

  • Вся правда о мужчинах / Separation City / 2009 / ПМ, СТ / DVD-9


    • Комментарии (0):

      Информация

      Информация

        Посетители, находящиеся в группе Гости, не могут оставлять комментарии в данной новости.

        ↓ Меню



        ↓ Опрос

        А Вы добавили сайт в закладки?
        Да
        Не


        Top 10 за месяц (Фильмы)