.
Авторизация | Регистрация
Хочешь лучшие торренты? Добавь свой email!
Добавить
» » Огни Баку (1950) DVDRip от New-Team скачать торрент бесплатно




    Огни Баку (1950) DVDRip от New-Team скачать торрент бесплатно

    Опубликовал: Админ | Дата: 2-10-2015, 05:01 | Просмотров: 168



    Снималось в: СССР
    Создали в: Бакинская киностудия
    Категория жанра: драма
    Создали в: 1950
    Время просмотра: 01: 11: 47
    Перевод текста: Не требуется
    Субтитры подготовлены: нет
    Оригинальная аудиодорожка: русский
    Главный режиссер: Иосиф Хейфиц, Рза Тахмасиб, Александр Зархи

    Актеры

    Мирза Алиев, Марзия Давудова, Николай Охлопков, Наджиба Меликова, И. Эль-Оглы, Николай Крючков, Петр Аржанов, Серке (Сералы) Кожамкулов, Михаил Геловани, Николай Мордвинов...
    Полный список актёров
    Описание:
    События происходят с 1930 годов до конца 40-ых. В это время нефтепромыслы были оснащены новым оборудованием, проходили испытания по добыче нефти в открытом море. Нефтяники самоотверженно трудились, чтобы обеспечить горючим фронт. Заключительные кадры фильма - первые послевоенные годы, в Баку зажигаются огни новых нефтяных скважин.



    Источник: DVD5 R5
    Качество фильма видео: DVDRip
    Тип видео видео: AVI
    Информация о видео: 688x512 (4: 3), 25 fps, XviD ~ 1311 kbps avg, 0.149 bit/pixel
    Информация о звуке: 48 kHz, Dolby Digital AC3 1.0, 128 kbps
    Раздача от:
    MediaInfo

    Общее
    Полное имя : Ogni.Baku.1950.DVDRip_New-team_by_AVP_Studio.avi
    Формат : AVI
    Формат/Информация : Audio Video Interleave
    Размер файла : 744 Мбайт
    Продолжительность : 1 ч. 11 м.
    Общий поток : 1448 Кбит/сек
    Программа кодирования : VirtualDubMod 1.5.10.3 | www.virtualdub-fr.org || (build 2550/release)
    Библиотека кодирования : VirtualDubMod build 2550/release
    Видео
    Идентификатор : 0
    Формат : MPEG-4 Visual
    Профиль формата : Advanced Simple@L5
    Параметр BVOP формата : 1
    Параметр QPel формата : Нет
    Параметр GMC формата : Без точки перехода
    Параметр матрицы формата : Выборочная
    Идентификатор кодека : XVID
    Идентификатор кодека/Подсказка : XviD
    Продолжительность : 1 ч. 11 м.
    Битрейт : 1311 Кбит/сек
    Ширина : 688 пикселей
    Высота : 512 пикселей
    Соотношение сторон : 4: 3
    Частота кадров : 25, 000 кадров/сек
    Цветовое пространство : YUV
    Субдискретизация насыщенности : 4: 2: 0
    Битовая глубина : 8 бит
    Тип развёртки : Прогрессивная
    Метод сжатия : С потерями
    Бит/(Пиксели*Кадры) : 0.149
    Размер потока : 673 Мбайт (90%)
    Библиотека кодирования : XviD 73
    Аудио
    Идентификатор : 1
    Формат : AC-3
    Формат/Информация : Audio Coding 3
    Расширение режима : CM (complete main)
    Параметр Endianness формата : Big
    Идентификатор кодека : 2000
    Продолжительность : 1 ч. 11 м.
    Вид битрейта : Постоянный
    Битрейт : 128 Кбит/сек
    Каналы : 1 канал
    Расположение каналов : Front: C
    Частота : 48, 0 КГц
    Метод сжатия : С потерями
    Размер потока : 65, 7 Мбайт (9%)
    Выравнивание : Разделение по промежуткам
    Продолжительность промежутка : 40 мс. (1, 00 видеокадр)
    Время предзагрузки промежутка : 500 мс

    Скриншоты



    Залил: AVPStudio

    Онлайн видео Огни Баку (1950) DVDRip от New


    Размер скачиваемого торрента: 743.63 MB (779753472 Bytes)

    Огни Баку (1950) DVDRip от New-Team
    загрузка...
    Рейтинг →
     (голосов: 1, оценка 4/5, голосовать можно 1 раз )

    Другие торренты по теме:

  • OST - Красные огни / Red Lights (2012) MP3
  • Яркие огни, большой город / Bright Lights, Big City (1988) HDTVRip 720 от ClubTorrent | P 2
  • Красные огни / Red Lights (2012) BDRip-AVC от leonardo 59
  • Огни ночного рейда / Senkou no Night Raid (2010) HDTV 720p | L2
  • Красные огни / Red Lights (2011) HDRip | iPhone
  • Горные огни / Hohenfeuer / Alpine Fire (1985) DVDRip от ExkinoRay | P
  • Огни святого Эльма / St. Elmos fire (1985) BDRip 720p | D, P2, A
  • Огни святого Эльма / St. Elmos fire (1985) BDRip | D, P2, A скачать через торрент бесплатно


    • Комментарии (0):

      Информация

      Информация

        Посетители, находящиеся в группе Гости, не могут оставлять комментарии в данной новости.

        ↓ Меню



        ↓ Опрос

        А Вы добавили сайт в закладки?
        Да
        Не


        Top 10 за месяц (Фильмы)