.
Авторизация | Регистрация
Хочешь лучшие торренты? Добавь свой email!
Добавить
» » Разлом Сан-Андреас / San Andreas (2015) BDRip-AVC от Scarabey | Лицензия скачать торрент бесплатно




    Разлом Сан-Андреас / San Andreas (2015) BDRip-AVC от Scarabey | Лицензия скачать торрент бесплатно

    Опубликовал: Админ | Дата: 30-09-2015, 05:01 | Просмотров: 196



    Создали в: 2015
    Снималось в: США, Австралия, Канада
    Категория жанра: боевик, триллер, драма
    Время просмотра: 01: 54: 24
    Перевод текста: Профессиональный (полное дублирование) Лицензия
    Субтитры подготовлены: форсированные русские, полные русские, оригинал
    Главный режиссер: Брэд Пейтон/Brad Peyton

    Актеры
    Дуэйн Джонсон, Карла Гуджино, Александра Даддарио, Йоан Гриффит, Арчи Панджаби, Пол Джаматти, Хьюго Джонстон-Барт, Арт Паркинсон, Уилл Юн Ли, Кайли Миноуг

    Описание фильма
    Рэй — пилот спасательного вертолета, который всю свою жизнь помогал другим людям. За все время работы он насмотрелся на множество жутких вещей и не раз оказывался в очень сложных ситуациях. Несмотря на все преграды он спешил на помощь, даже не предполагая, что самое страшное ждет его впереди. На Калифорнию обрушивается мощное землетрясение, в результате которого гибнут сотни людей и образовывается огромная трещина в земле. Во всеобщем хаосе Рэю предстоит отыскать свою дочь, но сделать это будет очень непросто. В надежде, что его ребенок все еще жив, он отправляется в смертельно опасное путешествие через весь штат…
    Качество фильма видео: BDRip-AVC
    Тип видео видео: MKV
    Информация о видео: 1024х428, 23.976 fps, AVC, ~2678 kbps avg, 0.255 bit/pixel
    Информация о звуке: 48 kHz, AC3 Dolby Digital, 3/2 (L, C, R, l, r) + LFE ch, ~448.00 kbps avg - дубляж
    Информация о звуке: 48 kHz, AC3 Dolby Digital, 3/2 (L, C, R, l, r) + LFE ch, ~384.00 kbps avg - оригинал
    Релиз подготовил:
    АНОНСЫ МОИХ РАЗДАЧ!


    Скриншоты

    Медиаинфо

    Разлом САSan.Andreas.2015_AVC_BDRip_scarabey.org.mkv
    Format : Matroska
    Format version : Version 4/Version 2
    File size : 2.81 GiB
    Duration : 1h 54mn
    Overall bit rate : 3 512 Kbps
    Encoded date : UTC 2015-09-28 17: 43: 38
    Writing application : mkvmerge v6.1.0 (;Old Devil;) built on Mar 4 2013 09: 10: 42
    Writing library : libebml v1.3.0 + libmatroska v1.4.0
    Video
    ID : 1
    Format : AVC
    Format/Info : Advanced Video Codec
    Format profile : High@L4.1
    Format settings, CABAC : Yes
    Format settings, ReFrames : 8 frames
    Codec ID : V_MPEG4/ISO/AVC
    Duration : 1h 54mn
    Bit rate : 2 678 Kbps
    Width : 1 024 pixels
    Height : 428 pixels
    Display aspect ratio : 2.35: 1
    Original display aspect ratio : 2.35: 1
    Frame rate mode : Constant
    Frame rate : 23.976 fps
    Color space : YUV
    Chroma subsampling : 4: 2: 0
    Bit depth : 8 bits
    Scan type : Progressive
    Bits/(Pixel*Frame) : 0.255
    Stream size : 2.09 GiB (74%)
    Writing library : x264 core 138 r2356 a1d3d17
    Encoding settings : cabac=1/ref=8/deblock=1: -3: -2/analyse=0x3: 0x113/me=umh/subme=10/psy=1/psy_rd=1.00: 0.05/mixed_ref=1/me_range=32/chroma_me=1/trellis=2/8x8dct=1/cqm=0/deadzone=21, 11/fast_pskip=0/chroma_qp_offset=-3/threads=12/lookahead_threads=2/sliced_threads=0/nr=0/decimate=0/interlaced=0/bluray_compat=0/constrained_intra=0/bframes=8/b_pyramid=2/b_adapt=2/b_bias=0/direct=3/weightb=1/open_gop=0/weightp=2/keyint=240/keyint_min=24/scenecut=40/intra_refresh=0/rc_lookahead=40/rc=2pass/mbtree=1/bitrate=2678/ratetol=1.0/qcomp=0.60/qpmin=0/qpmax=69/qpstep=4/cplxblur=20.0/qblur=0.5/ip_ratio=1.40/aq=1: 1.00
    Default : Yes
    Forced : No
    Audio #1
    ID : 2
    Format : AC-3
    Format/Info : Audio Coding 3
    Mode extension : CM (complete main)
    Format settings, Endianness : Big
    Codec ID : A_AC3
    Duration : 1h 54mn
    Bit rate mode : Constant
    Bit rate : 448 Kbps
    Channel(s) : 6 channels
    Channel positions : Front: L C R, Side: L R, LFE
    Sampling rate : 48.0 KHz
    Bit depth : 16 bits
    Compression mode : Lossy
    Stream size : 367 MiB (13%)
    Title : Дубляж - Лицензия
    Language : Russian
    Default : Yes
    Forced : No
    Audio #2
    ID : 3
    Format : AC-3
    Format/Info : Audio Coding 3
    Mode extension : CM (complete main)
    Format settings, Endianness : Big
    Codec ID : A_AC3
    Duration : 1h 54mn
    Bit rate mode : Constant
    Bit rate : 384 Kbps
    Channel(s) : 6 channels
    Channel positions : Front: L C R, Side: L R, LFE
    Sampling rate : 48.0 KHz
    Bit depth : 16 bits
    Compression mode : Lossy
    Stream size : 314 MiB (11%)
    Title : Оригинал
    Language : English
    Default : No
    Forced : No
    Text #1
    ID : 4
    Format : UTF-8
    Codec ID : S_TEXT/UTF8
    Codec ID/Info : UTF-8 Plain Text
    Title : Форсированные, русские
    Language : Russian
    Default : Yes
    Forced : No
    Text #2
    ID : 5
    Format : UTF-8
    Codec ID : S_TEXT/UTF8
    Codec ID/Info : UTF-8 Plain Text
    Title : Полные, русские
    Language : Russian
    Default : No
    Forced : No
    Text #3
    ID : 6
    Format : UTF-8
    Codec ID : S_TEXT/UTF8
    Codec ID/Info : UTF-8 Plain Text
    Title : Полные, оригинал
    Language : Russian
    Default : No
    Forced : No


    Онлайн видео Разлом Сан-Андреас


    Размер скачиваемого торрента: 2.81 GB (3015287979 Bytes)

    Разлом Сан-Андреас/San Andreas (2015) BDRip-AVC от Scarabey | Лицензия
    загрузка...
    Рейтинг →
     (голосов: 1, оценка 5/5, голосовать можно 1 раз )

    Другие торренты по теме:

  • Разлом Сан-Андреас (2015) HDRip
  • Разлом Сан-Андреас / San Andreas (2015) CAMRip
  • Разлом Сан-Андреас / San Andreas (2015) CAMRip
  • Разлом Сан-Андреас / San Andreas (2015) TS
  • Разлом Сан-Андреас / San Andreas (2015) WEBRip | Звук с TS
  • Разлом Сан-Андреас / San Andreas (2015) WEBRip | Чистый звук
  • Разлом Сан-Андреас / San Andreas (2015) WEBRip | Чистый звук
  • Разлом Сан-Андреас / San Andreas (2015) WEB-DLRip-AVC от ExKinoRay | Чистый звук


    • Комментарии (0):

      Информация

      Информация

        Посетители, находящиеся в группе Гости, не могут оставлять комментарии в данной новости.

        ↓ Меню



        ↓ Опрос

        А Вы добавили сайт в закладки?
        Да
        Не


        Top 10 за месяц (Фильмы)