.
Авторизация | Регистрация
Хочешь лучшие торренты? Добавь свой email!
Добавить
» » Школьный вальс (1977) SATRip от New-Team скачать торрент бесплатно




    Школьный вальс (1977) SATRip от New-Team скачать торрент бесплатно

    Опубликовал: Админ | Дата: 30-09-2015, 05:00 | Просмотров: 201



    Снималось в: СССР
    Создали в: Киностудия им. М.Горького
    Категория жанра: драма, мелодрама
    Создали в: 1977
    Время просмотра: 01: 29: 51
    Перевод текста: Не требуется
    Субтитры подготовлены: нет
    Оригинальная аудиодорожка: русский
    Главный режиссер: Павел Любимов

    Актеры

    Елена Цыплакова, Сергей Насибов, Евгения Симонова, Наталья Вилькина, Юрий Соломин, Нина Меньшикова, Елена Фетисенко, Виктор Камаев, Лидия Матасова, Ромуальдас Викшрайтис, Антонина Дмитриева, Виктор Проскурин, Вера Благовидова, Тигран Давыдов, Сергей Бачурский, Екатерина Дурова...
    Полный список актёров
    Описание:
    Окончена школа. Зосе и Гоше уже никто и ничто не помешает любить друг друга. Сообщив Гоше, что у них будет ребенок и поняв, что он испугался, Зося решается на трудную самостоятельную жизнь...



    Источник: DVB
    Качество фильма видео: SATRip
    Тип видео видео: AVI
    Информация о видео: 720x352 (2, 045: 1), 29, 970 fps, XviD ~ 2122 kbps avg, 0.279 bit/pixel
    Информация о звуке: 48 kHz, Dolby Digital AC3 2.0, 192 kbps
    Раздача от:
    MediaInfo

    Общее
    Полное имя : Shkolnyy.vals.1977.SATRip_New-team_by_AVP_Studio.avi
    Формат : AVI
    Формат/Информация : Audio Video Interleave
    Размер файла : 1, 46 Гбайт
    Продолжительность : 1 ч. 29 м.
    Общий поток : 2326 Кбит/сек
    Программа кодирования : VirtualDubMod 1.5.10.3 | www.virtualdub-fr.org || (build 2550/release)
    Библиотека кодирования : VirtualDubMod build 2550/release
    Видео
    Идентификатор : 0
    Формат : MPEG-4 Visual
    Профиль формата : Advanced Simple@L5
    Параметр BVOP формата : 1
    Параметр QPel формата : Нет
    Параметр GMC формата : Без точки перехода
    Параметр матрицы формата : Выборочная
    Идентификатор кодека : XVID
    Идентификатор кодека/Подсказка : XviD
    Продолжительность : 1 ч. 29 м.
    Битрейт : 2122 Кбит/сек
    Ширина : 720 пикселей
    Высота : 352 пикселя
    Соотношение сторон : 2, 045
    Частота кадров : 29, 970 кадров/сек
    Цветовое пространство : YUV
    Субдискретизация насыщенности : 4: 2: 0
    Битовая глубина : 8 бит
    Тип развёртки : Прогрессивная
    Метод сжатия : С потерями
    Бит/(Пиксели*Кадры) : 0.279
    Размер потока : 1, 33 Гбайт (91%)
    Библиотека кодирования : XviD 73
    Аудио
    Идентификатор : 1
    Формат : AC-3
    Формат/Информация : Audio Coding 3
    Расширение режима : CM (complete main)
    Параметр Endianness формата : Big
    Идентификатор кодека : 2000
    Продолжительность : 1 ч. 29 м.
    Вид битрейта : Постоянный
    Битрейт : 192 Кбит/сек
    Каналы : 2 канала
    Расположение каналов : Front: L R
    Частота : 48, 0 КГц
    Метод сжатия : С потерями
    Размер потока : 123 Мбайт (8%)
    Выравнивание : Разделение по промежуткам
    Продолжительность промежутка : 33 мс. (1, 00 видеокадр)
    Время предзагрузки промежутка : 500 мс

    Скриншоты



    Залил: AVPStudio

    Онлайн видео Школьный вальс (1977) SATRip от New


    Размер скачиваемого торрента: 1.46 GB (1567303680 Bytes)

    Школьный вальс (1977) SATRip от New-Team
    загрузка...
    Рейтинг →
     (голосов: 1, оценка 5/5, голосовать можно 1 раз )

    Другие торренты по теме:

  • Школьный вальс / 1977 / РУ / DVDRip (AVC)


    • Комментарии (0):

      Информация

      Информация

        Посетители, находящиеся в группе Гости, не могут оставлять комментарии в данной новости.

        ↓ Меню



        ↓ Опрос

        А Вы добавили сайт в закладки?
        Да
        Не


        Top 10 за месяц (Фильмы)