.
Авторизация | Регистрация
Хочешь лучшие торренты? Добавь свой email!
Добавить
» » Анна Герман. Тайна белого ангела (2012) HDRip от GeneralFilm скачать торрент бесплатно




    Анна Герман. Тайна белого ангела (2012) HDRip от GeneralFilm скачать торрент бесплатно

    Опубликовал: Админ | Дата: 26-09-2015, 05:01 | Просмотров: 243



    Создали в: 2012
    Создали в: Россия/Star Media
    Категория жанра: драма, биография
    Главный режиссер: Вальдемар Кшистек, Александр Тименко
    Актеры: Йоанна Моро, Мария Порошина, Марат Башаров, Екатерина Васильева, Константин Милованов, Томмазо Раменги, Анна Кирина, Мария Беккер, Игорь Сергеев, Даромир Данил Горденко
    Описание фильма: История о певице, которая на пике своей славы попала в автокатастрофу и оказалась прикованной к больничной койке. 12 дней восходящая звезда Анна Герман не приходила в сознание. В те дни ей пришлось снова пережить трагические события своего детства — арест отца, обвиненного в шпионаже, скитания их осиротелой семьи по Средней Азии, смерть маленького брата, войну и побег в Польшу в надежде скрыться от преследователей из НКВД… Первую любовь и первый успех…
    Никто из врачей не верил, что она выживет. А если даже это случится, ей пророчили полную неподвижность до конца жизни. Однако, после 12 дней комы небо даровало ей шанс начать жизнь заново. И она совершила невозможное, став белым ангелом советской эстрады…
    Время просмотра: 08: 26: 52
    Качество фильма: HDRip
    Информация о видео: XviD, 704 x 400 (16: 9), ~ 1100 kbps, 25.000 fps, 0.157 b/px
    Информация о звуке: MP3, 2 ch, 128 kbps, 48 000 Hz оригинальный (Русский)
    МедиаИнфо
    Общее
    Полное имя : Anna.German.2012.XviD.HDRip.by.GeneralFilmSerija.02.avi
    Формат : AVI
    Формат/Информация : Audio Video Interleave
    Размер файла : 446 Мбайт
    Продолжительность : 50 м.
    Общий поток : 1245 Кбит/сек
    Программа кодирования : VirtualDubMod 1.5.10.3 | www.virtualdub-fr.org || (build 2550/release)
    Библиотека кодирования : VirtualDubMod build 2550/release
    Видео
    Идентификатор : 0
    Формат : MPEG-4 Visual
    Профиль формата : Advanced Simple@L5
    Параметр BVOP формата : 1
    Параметр QPel формата : Нет
    Параметр GMC формата : Без точки перехода
    Параметр матрицы формата : Выборочная
    Идентификатор кодека : XVID
    Идентификатор кодека/Подсказка : XviD
    Продолжительность : 50 м.
    Битрейт : 1108 Кбит/сек
    Ширина : 704 пикселя
    Высота : 400 пикселей
    Соотношение сторон : 16: 9
    Частота кадров : 25, 000 кадров/сек
    Цветовое пространство : YUV
    Субдискретизация насыщенности : 4: 2: 0
    Битовая глубина : 8 бит
    Тип развёртки : Прогрессивная
    Метод сжатия : С потерями
    Бит/(Пиксели*Кадры) : 0.157
    Размер потока : 397 Мбайт (89%)
    Библиотека кодирования : XviD 73
    Аудио
    Идентификатор : 1
    Формат : MPEG Audio
    Версия формата : Version 1
    Профиль формата : Layer 3
    Идентификатор кодека : 55
    Идентификатор кодека/Подсказка : MP3
    Продолжительность : 50 м.
    Вид битрейта : Постоянный
    Битрейт : 128 Кбит/сек
    Каналы : 2 канала
    Частота : 48, 0 КГц
    Метод сжатия : С потерями
    Размер потока : 45, 8 Мбайт (10%)
    Выравнивание : Соединение по промежуткам
    Продолжительность промежутка : 40 мс. (1, 00 видеокадр)
    Время предзагрузки промежутка : 504 мс.
    Библиотека кодирования : LAME3.99r
    Залил: vsobbol
    Размер скачиваемого торрента: 4.36 GB (4677767168 Bytes)


    Анна Герман. Тайна белого ангела (2012) HDRip от GeneralFilm
    загрузка...
    Рейтинг →
     (голосов: 1, оценка 4/5, голосовать можно 1 раз )

    Другие торренты по теме:

  • ДОстояние РЕспублики. Анна Герман (2013) DVB
  • ДОстояние РЕспублики. Анна Герман (2013) SATRip
  • ДОстояние РЕспублики. Анна Герман (2013) HDTV 1080i
  • Анна Герман - Лучшие песни (1968-1981) MP3 скачать через торрент бесплатно
  • Анна Герман - Лучшие песни (1968-1981) FLAC скачать через торрент бесплатно
  • Анна Герман - Лучшее (2011) MP3


    • Комментарии (0):

      Информация

      Информация

        Посетители, находящиеся в группе Гости, не могут оставлять комментарии в данной новости.

        ↓ Меню



        ↓ Опрос

        А Вы добавили сайт в закладки?
        Да
        Не


        Top 10 за месяц (Фильмы)