.
Авторизация | Регистрация
Хочешь лучшие торренты? Добавь свой email!
Добавить
» » Крутые Стволы / Mean Guns (1997) BDRip-AVC | P2 | Directors cut скачать торрент бесплатно




    Крутые Стволы / Mean Guns (1997) BDRip-AVC | P2 | Directors cut скачать торрент бесплатно

    Опубликовал: Админ | Дата: 25-09-2015, 05:01 | Просмотров: 140




    Детально о кино
    Русское название: Крутые Стволы
    Русское название в мировом прокате: Mean Guns
    Создали в: 1997
    Категория жанра: криминал, боевик
    Главный режиссер: Альберт Пьюн/Albert Pyun

    Актеры
    Кристофер Ламберт, Айс-Ти, Майкл Холси, Кимберли Уоррен, Тина Котэ, Юджи Окумото, Том Мэтьюз, Хантер Доути, Дебора Ван Валкенберг

    Сюжет фильма

    В только что отстроенной тюрьме некий Мун собирает самых крутых боевиков синдиката и объявляет правила игры, отказаться от которых невозможно. Трое оставшихся в живых должны забрать приз в 10 млн. долларов.
    Игра начинается. В общем сражении образуются две группы, из которых выделяется одна - с политическим профессиональным убийцей, его бывшим боссом, очень крутой блондинкой и случайно попавшей в эту историю журналисткой.

    Снималось в: США
    Киностудия: Filmwerks
    Время просмотра: 01: 50: 21
    Перевод текста: Профессиональный (двухголосый закадровый) Twister
    Файл
    Кодек для видео: V_MPEG4/ISO/AVC
    Качество фильма: BDRip-AVC
    Информация о видео: High@L4.1, 1024x576, 23, 976 fps, ~1700 kbps
    Информация о звуке: AC3, 2 ch, 192 kbps, 48kHz

    M/I
    General
    Unique ID : 333148305616971808542990706430219159969 (0xFAA2079F11D202D2359CD4B10BA089A1)
    Complete name : F: Крутые стволы.(1997).BDRIP_AVC.-=DoMiNo=-.-=DoMiNo=-.mkv
    Format : Matroska
    Format version : Version 4/Version 2
    File size : 1.45 GiB
    Duration : 1h 50mn
    Overall bit rate : 1 883 Kbps
    Writing application : XviD4PSP 7.0.170
    Writing library : Lavf56.25.101
    ENCODING_INFO : BluRay MKV/H264 X264 VBR-2P 1690kbps Custom/DTS-HD MA AC3 CBR 192kbps
    Video
    ID : 1
    Format : AVC
    Format/Info : Advanced Video Codec
    Format profile : High@L4.1
    Format settings, CABAC : Yes
    Format settings, ReFrames : 12 frames
    Codec ID : V_MPEG4/ISO/AVC
    Duration : 1h 50mn
    Bit rate : 1 690 Kbps
    Width : 1 024 pixels
    Height : 576 pixels
    Display aspect ratio : 16: 9
    Frame rate mode : Constant
    Frame rate : 23.976 fps
    Color space : YUV
    Chroma subsampling : 4: 2: 0
    Bit depth : 8 bits
    Scan type : Progressive
    Bits/(Pixel*Frame) : 0.120
    Stream size : 1.27 GiB (88%)
    Writing library : x264 core 148 r2597M e86f3a1
    Encoding settings : cabac=1/ref=12/deblock=1: -3: -3/analyse=0x3: 0x133/me=umh/subme=11/psy=1/psy_rd=1.00: 0.10/mixed_ref=1/me_range=32/chroma_me=1/trellis=2/8x8dct=1/cqm=0/deadzone=21, 11/fast_pskip=0/chroma_qp_offset=-3/threads=5/lookahead_threads=1/sliced_threads=0/nr=0/decimate=1/interlaced=0/bluray_compat=0/constrained_intra=0/bframes=11/b_pyramid=2/b_adapt=2/b_bias=0/direct=3/weightb=1/open_gop=0/weightp=2/keyint=230/keyint_min=23/scenecut=40/intra_refresh=0/rc=2pass/mbtree=0/bitrate=1690/ratetol=1.0/qcomp=0.60/qpmin=0/qpmax=69/qpstep=4/cplxblur=20.0/qblur=0.5/ip_ratio=1.40/pb_ratio=1.30/aq=1: 1.00
    Default : Yes
    Forced : No
    Color range : Limited
    Color primaries : BT.709
    Transfer characteristics : BT.709
    Matrix coefficients : BT.709
    Audio
    ID : 2
    Format : AC-3
    Format/Info : Audio Coding 3
    Mode extension : CM (complete main)
    Format settings, Endianness : Big
    Codec ID : A_AC3
    Duration : 1h 50mn
    Bit rate mode : Constant
    Bit rate : 192 Kbps
    Channel(s) : 2 channels
    Channel positions : Front: L R
    Sampling rate : 48.0 KHz
    Bit depth : 32 bits
    Compression mode : Lossy
    Delay relative to video : 27ms
    Stream size : 152 MiB (10%)
    Language : Russian
    Default : Yes
    Forced : No
    Menu
    00: 00: 00.000 : : Глава 1
    00: 10: 52.025 : : Глава 2
    00: 24: 05.652 : : Глава 3
    00: 36: 36.569 : : Глава 4
    00: 52: 18.927 : : Глава 5
    01: 08: 23.557 : : Глава 6
    01: 21: 56.953 : : Глава 7
    01: 37: 32.972 : : Глава 8
    01: 50: 19.070 : : Глава 9

    Размер скачиваемого торрента: 1.45 GB (1558828131 Bytes)

    Крутые Стволы/Mean Guns (1997) BDRip-AVC | P2 | Directors cut
    загрузка...
    Рейтинг →
     (голосов: 1, оценка 4/5, голосовать можно 1 раз )

    Другие торренты по теме:

  • Крутые Стволы / Mean Guns (1997) DVDRip от Leon-masl | P2 | Directors cut скачать через торрент бесплатно
  • Крутые Стволы / Mean Guns (1997) HDRip от Leon-masl | P2 | Directors cut
  • Крутые Стволы (Полная версия) / Mean Guns (Unrated Director's Cut) / 1997 / ПМ, 2 х ПД, АП (Живов), СТ / Blu-Ray Remux (1080p)
  • Крутые стволы / Mean Guns (1997) BDRip 1080p | Directors cut | P, P2, A
  • Крутые стволы / Mean Guns / 1997 / ПМ / DVDRip


    • Комментарии (0):

      Информация

      Информация

        Посетители, находящиеся в группе Гости, не могут оставлять комментарии в данной новости.

        ↓ Меню



        ↓ Опрос

        А Вы добавили сайт в закладки?
        Да
        Не


        Top 10 за месяц (Фильмы)