.
Авторизация | Регистрация
Хочешь лучшие торренты? Добавь свой email!
Добавить
» » Готэм / Gotham (2015) WEB-DL 1080p | NewStudio, LostFilm, BaibaKo скачать торрент бесплатно




    Готэм / Gotham (2015) WEB-DL 1080p | NewStudio, LostFilm, BaibaKo скачать торрент бесплатно

    Опубликовал: Админ | Дата: 25-09-2015, 05:01 | Просмотров: 144



    Детально о кино
    Русское название: Готэм
    Русское название в мировом прокате: Gotham
    Создали в: 2015
    Категория жанра: триллер, драма, криминал
    Главный режиссер: Дэнни Кэннон

    Актеры
    Бенжамин МакКензи, Шон Пертуи, Робин Тэйлор, Забрина Гевара, Эрин Ричардс, Донал Лог, Джада Пинкетт Смит, Дэвид Мазоуз, Камрен Бикондова, Кори Майкл Смит

    Сюжет фильма

    Новый сотрудник департамента полиции Готэма, детектив Джеймс Гордон и его напарник Харви Баллок назначаются начальником отдела полиции Готэма по расследованию убийств Сарой Эссен на самое громкое дело последних лет - убийство Томаса и Марты Уэйн. Во время расследования Гордон знакомится с сыном убитых - Брюсом Уэйном, который после смерти родителей находится под опекой своего дворецкого Альфреда. Одновременно с расследованием убийства Гордону приходится бороться с местным главарем банды Фишем Муни, а также с будущими злодеями Готэма: Селиной Кайл и Освальдом Кобблпотом. В итоге, Гордон фокусируется на дружбе с молодым Брюсом, чтобы в будущем сделать из маленького мальчика Тёмного рыцаря - защитника Готэма.
    MI
    Общее
    Уникальный идентификатор : 210908501213105335713210547516973245841 (0x9EAB7FF2F8F173B9B1AD0250BF6BE591)
    Полное имя : Gotham.S02.720p.WEB-DLGotham.s02e01.WEB-DL.720p.mkv
    Формат : Matroska
    Версия формата : Version 4/Version 2
    Размер файла : 1, 71 Гбайт
    Продолжительность : 44 м.
    Общий поток : 5560 Кбит/сек
    Название фильма : Created by filin1984 for Кинозал.ТВ
    Дата кодирования : UTC 2015-09-24 19: 58: 28
    Программа кодирования : mkvmerge v6.9.1 (;Blue Panther;) 32bit built on Apr 18 2014 18: 15: 44
    Библиотека кодирования : libebml v1.3.0 + libmatroska v1.4.1
    Видео
    Идентификатор : 1
    Формат : AVC
    Формат/Информация : Advanced Video Codec
    Профиль формата : High@L3.1
    Параметр CABAC формата : Нет
    Параметр ReFrames формата : 2 кадра
    Идентификатор кодека : V_MPEG4/ISO/AVC
    Продолжительность : 44 м.
    Битрейт : 3914 Кбит/сек
    Ширина : 1280 пикселей
    Высота : 718 пикселей
    Соотношение сторон : 16: 9
    Режим частоты кадров : Постоянный
    Частота кадров : 23, 976 кадра/сек
    Цветовое пространство : YUV
    Субдискретизация насыщенности : 4: 2: 0
    Битовая глубина : 8 бит
    Тип развёртки : Прогрессивная
    Бит/(Пиксели*Кадры) : 0.178
    Размер потока : 1, 20 Гбайт (70%)
    Заголовок : Gotham 2x01 (2015)
    Язык : English
    Default : Да
    Forced : Нет
    Основные цвета : BT.709
    Характеристики трансфера : BT.709
    Коэффициенты матрицы : BT.709
    colour_range : Limited
    Аудио #1
    Идентификатор : 2
    Формат : AC-3
    Формат/Информация : Audio Coding 3
    Расширение режима : CM (complete main)
    Параметр Endianness формата : Big
    Идентификатор кодека : A_AC3
    Продолжительность : 44 м.
    Вид битрейта : Постоянный
    Битрейт : 384 Кбит/сек
    Каналы : 6 каналов
    Расположение каналов : Front: L C R, Side: L R, LFE
    Частота : 48, 0 КГц
    Битовая глубина : 16 бит
    Метод сжатия : С потерями
    Размер потока : 121 Мбайт (7%)
    Заголовок : NewStudio
    Язык : Russian
    Default : Да
    Forced : Да
    Аудио #2
    Идентификатор : 3
    Формат : AC-3
    Формат/Информация : Audio Coding 3
    Расширение режима : CM (complete main)
    Параметр Endianness формата : Big
    Идентификатор кодека : A_AC3
    Продолжительность : 44 м.
    Вид битрейта : Постоянный
    Битрейт : 384 Кбит/сек
    Каналы : 6 каналов
    Расположение каналов : Front: L C R, Side: L R, LFE
    Частота : 48, 0 КГц
    Битовая глубина : 16 бит
    Метод сжатия : С потерями
    Размер потока : 121 Мбайт (7%)
    Заголовок : LostFilm
    Язык : Russian
    Default : Нет
    Forced : Нет
    Аудио #3
    Идентификатор : 4
    Формат : AC-3
    Формат/Информация : Audio Coding 3
    Расширение режима : CM (complete main)
    Параметр Endianness формата : Big
    Идентификатор кодека : A_AC3
    Продолжительность : 44 м.
    Вид битрейта : Постоянный
    Битрейт : 384 Кбит/сек
    Каналы : 6 каналов
    Расположение каналов : Front: L C R, Side: L R, LFE
    Частота : 48, 0 КГц
    Битовая глубина : 16 бит
    Метод сжатия : С потерями
    Задержка видео : 12 мс.
    Размер потока : 121 Мбайт (7%)
    Заголовок : BaibaKo
    Язык : Russian
    Default : Нет
    Forced : Нет
    Аудио #4
    Идентификатор : 5
    Формат : AC-3
    Формат/Информация : Audio Coding 3
    Расширение режима : CM (complete main)
    Параметр Endianness формата : Big
    Идентификатор кодека : A_AC3
    Продолжительность : 44 м.
    Вид битрейта : Постоянный
    Битрейт : 384 Кбит/сек
    Каналы : 6 каналов
    Расположение каналов : Front: L C R, Side: L R, LFE
    Частота : 48, 0 КГц
    Битовая глубина : 16 бит
    Метод сжатия : С потерями
    Размер потока : 121 Мбайт (7%)
    Язык : English
    Default : Нет
    Forced : Нет
    Текст #1
    Идентификатор : 6
    Формат : UTF-8
    Идентификатор кодека : S_TEXT/UTF8
    Идентификатор кодека/Информация : UTF-8 Plain Text
    Язык : Russian
    Default : Нет
    Forced : Нет
    Текст #2
    Идентификатор : 7
    Формат : UTF-8
    Идентификатор кодека : S_TEXT/UTF8
    Идентификатор кодека/Информация : UTF-8 Plain Text
    Заголовок : eng-sub
    Язык : English
    Default : Нет
    Forced : Нет


    Снималось в: США
    Время просмотра: ~ 00: 43: 00
    Перевод текста:
    1. профессиональный (многоголосый, закадровый) - NewStudio
    Перевод: Александра Цернант
    2. профессиональный (многоголосый, закадровый) - LostFilm
    работа со звуком: k-marat-s
    3. любительский (многоголосый, закадровый) - BaibaKo
    Перевод: Янина Галицкая
    Озвучка: Ольга Мотрич, Светлана Доманова, Сергей Корчак, Дмитрий Козак и Алексей Кузнецов.
    Файл
    Кодек для видео: x264
    Качество фильма: WEB-DL 1080p
    Информация о видео: MPEG-4 AVC, ~ 5000 Кбит/с, 1916x1076, 23.976 кадр/с
    Информация о звуке: Русский, английский (AC3, 6 ch, 384 Кбит/с)
    Субтитры: Русские, английские
    Скриншоты



    Размер скачиваемого торрента: 2.01 GB (2155548227 Bytes)

    Готэм/Gotham (2015) WEB-DL 1080p | NewStudio, LostFilm, BaibaKo
    загрузка...
    Рейтинг →
     (голосов: 1, оценка 4/5, голосовать можно 1 раз )

    Другие торренты по теме:

  • Готэм / Gotham (2014) HDTVRip | Kerob скачать через торрент бесплатно
  • Готэм / Gotham скачать через торрент бесплатно
  • Готэм / Gotham (2014) WEB-DLRip от Scarabey | LostFilm
  • Готэм / Gotham (2014) WEB-DL 720p | BaibaKo скачать через торрент бесплатно
  • Готэм / Gotham (2014) WEB-DLRip | BaibaKo скачать через торрент бесплатно
  • Готэм / Gotham (2014) WEB-DL 1080p | BaibaKo скачать через торрент бесплатно
  • Готэм / Gotham (2014) WEB-DL 1080p | HamsterStudio скачать через торрент бесплатно
  • Готэм / Gotham (2014) WEB-DL 720p | HamsterStudio скачать через торрент бесплатно


    • Комментарии (0):

      Информация

      Информация

        Посетители, находящиеся в группе Гости, не могут оставлять комментарии в данной новости.

        ↓ Меню



        ↓ Опрос

        А Вы добавили сайт в закладки?
        Да
        Не


        Top 10 за месяц (Фильмы)