.
Авторизация | Регистрация
Хочешь лучшие торренты? Добавь свой email!
Добавить
» » Макс Манус: Человек войны / Max Manus (2008) BDRip 720p от Scarabey | P скачать торрент бесплатно




    Макс Манус: Человек войны / Max Manus (2008) BDRip 720p от Scarabey | P скачать торрент бесплатно

    Опубликовал: Админ | Дата: 21-09-2015, 05:01 | Просмотров: 213



    Создали в: 2008
    Снималось в: Норвегия, Дания, Германия
    Категория жанра: боевик, драма, военный, биография, история
    Время просмотра: 01: 52: 59
    Перевод текста: Профессиональный (многоголосый, закадровый) Лицензия
    Субтитры подготовлены: нет
    Главный режиссер: Хоаким Роннинг/Joachim Roenning, Эспен Сандберг/Espen Sandberg

    Актеры
    Аксель Хенни, Агнес Киттелсен, Николай Клеве Брок, Кен Дюкен, Кристиан Перерсен, Кнут Йонер, Матс Элдоен, Карре Хаген Сиднесс, Виктория Винги, Пол Сверре Валхейм Хаген

    Описание фильма
    Максу Манусу было чуть больше двадцати, когда началась Вторая Мировая Война, и Норвегию оккупировали нацисты. Макс стал одним из самых бесстрашных и изобретательных диверсантов норвежского сопротивления. Под его командованием команда молодых ребят взрывала немецкие танкеры и захватывала штаб-квартиры в центре окупированной столицы, кишащей гестаповцами. На несколько страшных лет война стала жизнью для Макса — на ней он встретил свою настоящую любовь, на ней же потерял лучшего друга.
    Качество фильма видео: BDRip 720p
    Тип видео видео: MKV
    Информация о видео: 1280х544 (2.35: 1), 25.000 fps, AVC, ~3890 kbps avg, 0.223 bit/pixel
    Информация о звуке: 48 kHz, AC3 Dolby Digital, 3/2 (L, C, R, l, r) + LFE ch, ~640.00 kbps avg
    Релиз подготовил:
    АНОНСЫ МОИХ РАЗДАЧ!


    Скриншоты

    Mediainfo
    Ммакс МанусMax.Manus.2008_AVC_BDRip_scarabey.org.mkv
    Format : Matroska
    Format version : Version 2
    File size : 3.58 GiB
    Duration : 1h 52mn
    Overall bit rate : 4 531 Kbps
    Encoded date : UTC 2015-09-02 23: 49: 33
    Writing application : mkvmerge v6.1.0 (;Old Devil;) built on Mar 4 2013 09: 10: 42
    Writing library : libebml v1.3.0 + libmatroska v1.4.0
    Video
    ID : 1
    Format : AVC
    Format/Info : Advanced Video Codec
    Format profile : High@L4.1
    Format settings, CABAC : Yes
    Format settings, ReFrames : 6 frames
    Codec ID : V_MPEG4/ISO/AVC
    Duration : 1h 52mn
    Bit rate : 3 890 Kbps
    Width : 1 280 pixels
    Height : 544 pixels
    Display aspect ratio : 2.35: 1
    Frame rate mode : Constant
    Frame rate : 25.000 fps
    Color space : YUV
    Chroma subsampling : 4: 2: 0
    Bit depth : 8 bits
    Scan type : Progressive
    Bits/(Pixel*Frame) : 0.223
    Stream size : 3.00 GiB (84%)
    Writing library : x264 core 138 r2356 a1d3d17
    Encoding settings : cabac=1/ref=6/deblock=1: -3: -3/analyse=0x3: 0x113/me=umh/subme=10/psy=1/psy_rd=1.00: 0.05/mixed_ref=1/me_range=32/chroma_me=1/trellis=2/8x8dct=1/cqm=0/deadzone=21, 11/fast_pskip=0/chroma_qp_offset=-3/threads=12/lookahead_threads=2/sliced_threads=0/nr=0/decimate=0/interlaced=0/bluray_compat=0/constrained_intra=0/bframes=8/b_pyramid=2/b_adapt=2/b_bias=0/direct=3/weightb=1/open_gop=0/weightp=2/keyint=250/keyint_min=25/scenecut=40/intra_refresh=0/rc_lookahead=40/rc=2pass/mbtree=1/bitrate=3890/ratetol=1.0/qcomp=0.60/qpmin=10/qpmax=51/qpstep=4/cplxblur=20.0/qblur=0.5/vbv_maxrate=50000/vbv_bufsize=50000/nal_hrd=none/ip_ratio=1.40/aq=1: 0.80
    Default : Yes
    Forced : No
    Audio
    ID : 2
    Format : AC-3
    Format/Info : Audio Coding 3
    Mode extension : CM (complete main)
    Format settings, Endianness : Big
    Codec ID : A_AC3
    Duration : 1h 52mn
    Bit rate mode : Constant
    Bit rate : 640 Kbps
    Channel(s) : 6 channels
    Channel positions : Front: L C R, Side: L R, LFE
    Sampling rate : 48.0 KHz
    Bit depth : 16 bits
    Compression mode : Lossy
    Stream size : 517 MiB (14%)
    Default : Yes
    Forced : No

    Размер скачиваемого торрента: 3.58 GB (3839773464 Bytes)

    Макс Манус: Человек войны/Max Manus (2008) BDRip 720p от Scarabey | P
    загрузка...
    Рейтинг →
     (голосов: 1, оценка 4/5, голосовать можно 1 раз )

    Другие торренты по теме:

  • Макс Манус: Человек войны / Max Manus (2008) Blu-Ray 1080i от HDClub | Лицензия
  • Макс Манус: Человек войны / Max Manus (2008) BDRemux 1080i от ExKinoRay | Лицензия
  • Макс Манус: Человек войны / Max Manus (2008) BDRip-AVC от Leo.pard | P скачать через торрент бесплатно
  • Макс Манус: Человек войны / Max Manus (2008) BDRip 1080p от ExKinoRay | Лицензия скачать через торрент бесплатно


    • Комментарии (0):

      Информация

      Информация

        Посетители, находящиеся в группе Гости, не могут оставлять комментарии в данной новости.

        ↓ Меню



        ↓ Опрос

        А Вы добавили сайт в закладки?
        Да
        Не


        Top 10 за месяц (Фильмы)