.
Авторизация | Регистрация
Хочешь лучшие торренты? Добавь свой email!
Добавить
» » Шугар Хилл / Sugar Hill (1993) WEB-DLRip-AVC | P скачать торрент бесплатно




    Шугар Хилл / Sugar Hill (1993) WEB-DLRip-AVC | P скачать торрент бесплатно

    Опубликовал: Админ | Дата: 11-09-2015, 05:01 | Просмотров: 149


    Шугар Хилл/Sugar Hill (1993) WEB-DLRip-AVC

    Создали в: США/Beacon Communications LLC, Ghiznoz Productions, South Street Films
    Категория жанра: Драма, Триллер
    Главный режиссер: Леон Ичасо
    Актеры: Уэсли Снайпс , Майкл Райт , Тереза Рэндл , Сэм Боттомс , Джо Даллесандро , Эрни Хадсон и др.

    Описание фильма

    Два брата- Ромело и Рэй -ведут преступный бизнес в Гарлеме, мстя обидчикам отца и отражая натиск конкурентов. Жестокая действительность — жестокие методы, но Ромело, сочетающий качества интеллектуала и супермена, пытается выйти из игры начать спокойную жизнь с красавицей Мелиссой…

    Релиз подготовил: FAGOT100(NNM-CLUB)
    Время просмотра: 02: 03: 26
    Качество фильма видео: WEB-DLRip-AVC
    Перевод текста: Профессиональный (многоголосый, закадровый)
    Субтитры: отсутствуют
    Информация о видео: AVC, 1024x544 (1.882), 23.976 fps, 2 499 Kbps (0.187 bit/pixel)
    Информация о звуке: AC-3, 48.0 KHz, 6 ch, 384 Kbps, CBR (Russian)
    Mediainfo:

    Формат : Matroska
    Версия формата : Version 2
    Размер файла : 2, 49 Гбайт
    Продолжительность : 2 ч. 3 м.
    Общий поток : 2885 Кбит/сек
    Дата кодирования : UTC 2015-09-10 00: 14: 48
    Программа кодирования : mkvmerge v5.3.0 (;I could have danced;) built on Feb 9 2012 10: 38: 07
    Библиотека кодирования : libebml v1.2.3 + libmatroska v1.3.0
    Attachment : Yes
    Видео
    Идентификатор : 1
    Формат : AVC
    Формат/Информация : Advanced Video Codec
    Профиль формата : High@L4.1
    Параметр CABAC формата : Да
    Параметр ReFrames формата : 10 кадров
    Идентификатор кодека : V_MPEG4/ISO/AVC
    Продолжительность : 2 ч. 3 м.
    Битрейт : 2499 Кбит/сек
    Ширина : 1024 пикселя
    Высота : 544 пикселя
    Соотношение сторон : 1, 882
    Режим частоты кадров : Постоянный
    Частота кадров : 23, 976 кадра/сек
    Цветовое пространство : YUV
    Субдискретизация насыщенности : 4: 2: 0
    Битовая глубина : 8 бит
    Тип развёртки : Прогрессивная
    Бит/(Пиксели*Кадры) : 0.187
    Размер потока : 2, 11 Гбайт (85%)
    Библиотека кодирования : x264 core 146 r2538 121396c
    Настройки программы : cabac=1/ref=10/deblock=1: -3: -3/analyse=0x3: 0x133/me=umh/subme=10/psy=1/psy_rd=1.00: 0.05/mixed_ref=1/me_range=32/chroma_me=1/trellis=2/8x8dct=1/cqm=0/deadzone=21, 11/fast_pskip=0/chroma_qp_offset=-3/threads=12/lookahead_threads=2/sliced_threads=0/nr=0/decimate=0/interlaced=0/bluray_compat=0/constrained_intra=0/bframes=7/b_pyramid=2/b_adapt=2/b_bias=0/direct=3/weightb=1/open_gop=0/weightp=2/keyint=240/keyint_min=23/scenecut=40/intra_refresh=0/rc=2pass/mbtree=0/bitrate=2499/ratetol=1.0/qcomp=0.60/qpmin=0/qpmax=69/qpstep=4/cplxblur=20.0/qblur=0.5/ip_ratio=1.40/pb_ratio=1.30/aq=1: 1.00
    Язык : English
    Default : Да
    Forced : Нет
    Аудио
    Идентификатор : 2
    Формат : AC-3
    Формат/Информация : Audio Coding 3
    Расширение режима : CM (complete main)
    Параметр Endianness формата : Big
    Идентификатор кодека : A_AC3
    Продолжительность : 2 ч. 3 м.
    Вид битрейта : Постоянный
    Битрейт : 384 Кбит/сек
    Каналы : 6 каналов
    Расположение каналов : Front: L C R, Side: L R, LFE
    Частота : 48, 0 КГц
    Битовая глубина : 16 бит
    Метод сжатия : С потерями
    Задержка видео : 8 мс.
    Размер потока : 339 Мбайт (13%)
    Заголовок : Источник DVD
    Язык : Russian
    Default : Да
    Forced : Нет
    Меню
    00: 00: 00.000 : en: Main Titles
    00: 03: 04.000 : en: Mama;s Medication
    00: 07: 12.000 : en: Dear Mother...
    00: 10: 33.000 : en: Romeo Melissa
    00: 13: 34.000 : en: The Junkie;s Son
    00: 19: 59.000 : en: To Be a Gangster
    00: 23: 54.000 : en: A Personal Thing
    00: 27: 40.000 : en: The Guy from Red Hook
    00: 31: 01.000 : en: I;m Out
    00: 33: 17.000 : en: A Walk with Melissa
    00: 34: 29.000 : en: A.R.;s Advice
    00: 36: 45.000 : en: If I Go Away
    00: 40: 53.000 : en: In Danger
    00: 43: 44.000 : en: Trouble
    00: 45: 53.000 : en: Things are Different
    00: 51: 12.000 : en: The Widow
    00: 55: 16.000 : en: A Truce
    00: 58: 50.000 : en: Another Chance
    01: 02: 33.000 : en: Dinner with Pops
    01: 07: 50.000 : en: War
    01: 14: 02.000 : en: Out of Control
    01: 16: 18.000 : en: No Promises
    01: 21: 22.000 : en: Time to Go Home
    01: 25: 22.000 : en: Melissa;s Date
    01: 28: 01.000 : en: Harry;s Threat
    01: 29: 21.000 : en: The Player;s Mean Streak
    01: 36: 42.000 : en: End of the Road
    01: 38: 09.000 : en: Ray;s Fix
    01: 47: 26.000 : en: An Understanding
    01: 52: 59.000 : en: Death in the Family
    01: 56: 22.000 : en: There;s Still Life
    01: 58: 17.000 : en: End Titles

    Скриншоты:

    Размер скачиваемого торрента: 2.49 GB (2670576403 Bytes)

    Шугар Хилл/Sugar Hill (1993) WEB-DLRip-AVC | P
    загрузка...
    Рейтинг →
     (голосов: 1, оценка 3/5, голосовать можно 1 раз )

    Другие торренты по теме:

  • Шугар Хилл / Sugar Hill (1993) DVDRip от Youtracker
  • Шугар Хилл / Sugar Hill (1993) DVDRip-AVC от New-Team


    • Комментарии (0):

      Информация

      Информация

        Посетители, находящиеся в группе Гости, не могут оставлять комментарии в данной новости.

        ↓ Меню



        ↓ Опрос

        А Вы добавили сайт в закладки?
        Да
        Не


        Top 10 за месяц (Фильмы)