.
Авторизация | Регистрация
Хочешь лучшие торренты? Добавь свой email!
Добавить
» » Честь товарища (1953) DVDRip от New-Team скачать торрент бесплатно




    Честь товарища (1953) DVDRip от New-Team скачать торрент бесплатно

    Опубликовал: Админ | Дата: 11-09-2015, 05:01 | Просмотров: 146



    Снималось в: СССР
    Создали в: Ленфильм
    Категория жанра: семейный
    Создали в: 1953
    Время просмотра: 01: 17: 00
    Перевод текста: Не требуется
    Субтитры подготовлены: нет
    Оригинальная аудиодорожка: русский
    Главный режиссер: Николай Лебедев

    Актеры

    Константин Скоробогатов, Борис Коковкин, Геннадий Мичурин, Владимир Дружников, Анатолий Чемодуров, Юрий Толубеев, Виктор Бирцев, Евгений Новиков, Лев Фричинский, Феликс Яворский, Нина Гребешкова, Василий Меркурьев, Лев Коптев, Юра Лепешкин, Борис Матюшкин...
    Полный список актёров
    Описание:
    По мотивам повести Бориса Изюмского Алые погоны.
    О воспитании будущих офицеров Советской Армии. Новому воспитателю cуворовского училища майору Боканову (Владимир Дружников) сразу же пришлось разбираться в конфликте между воспитанником старшего курса Геннадием Пашковым и его товарищами. Самовлюбленный и эгоистичный Геннадий был заносчив, мог высмеять дружеские отношения между юношей и девушкой, мог подвести товарища. Опыт воспитателя и время меняют поведение зазнавшегося юноши, и ко времени окончания училища его друзья уверены, что Пашков станет хорошим командиром.



    Источник: DVD5 R5
    Качество фильма видео: DVDRip
    Тип видео видео: AVI
    Информация о видео: 640x480 (4: 3), 25 fps, XviD ~ 1216 kbps avg, 0.158 bit/pixel
    Информация о звуке: 48 kHz, MP3 2.0, 128 kbps
    Раздача от:
    MediaInfo

    Общее
    Полное имя : Chest.tovarishha.1953.DVDRip-745_New-team_by_AVP_Studio.avi
    Формат : AVI
    Формат/Информация : Audio Video Interleave
    Размер файла : 745 Мбайт
    Продолжительность : 1 ч. 16 м.
    Общий поток : 1354 Кбит/сек
    Программа кодирования : VirtualDubMod 1.5.10.3 | www.virtualdub-fr.org || (build 2550/release)
    Библиотека кодирования : VirtualDubMod build 2550/release
    Видео
    Идентификатор : 0
    Формат : MPEG-4 Visual
    Профиль формата : Advanced Simple@L5
    Параметр BVOP формата : 1
    Параметр QPel формата : Нет
    Параметр GMC формата : Без точки перехода
    Параметр матрицы формата : Выборочная
    Идентификатор кодека : XVID
    Идентификатор кодека/Подсказка : XviD
    Продолжительность : 1 ч. 16 м.
    Битрейт : 1216 Кбит/сек
    Ширина : 640 пикселей
    Высота : 480 пикселей
    Соотношение сторон : 4: 3
    Частота кадров : 25, 000 кадров/сек
    Цветовое пространство : YUV
    Субдискретизация насыщенности : 4: 2: 0
    Битовая глубина : 8 бит
    Тип развёртки : Прогрессивная
    Метод сжатия : С потерями
    Бит/(Пиксели*Кадры) : 0.158
    Размер потока : 670 Мбайт (90%)
    Библиотека кодирования : XviD 73
    Аудио
    Идентификатор : 1
    Формат : MPEG Audio
    Версия формата : Version 1
    Профиль формата : Layer 3
    Идентификатор кодека : 55
    Идентификатор кодека/Подсказка : MP3
    Продолжительность : 1 ч. 16 м.
    Вид битрейта : Постоянный
    Битрейт : 128 Кбит/сек
    Каналы : 2 канала
    Частота : 48, 0 КГц
    Метод сжатия : С потерями
    Размер потока : 70, 5 Мбайт (9%)
    Выравнивание : Соединение по промежуткам
    Продолжительность промежутка : 40 мс. (1, 00 видеокадр)
    Время предзагрузки промежутка : 504 мс.
    Библиотека кодирования : LAME3.99r
    Залил: AVPStudio
    Размер скачиваемого торрента: 745.37 MB (781572096 Bytes)


    Честь товарища (1953) DVDRip от New-Team
    загрузка...
    Рейтинг →
     (голосов: 1, оценка 3/5, голосовать можно 1 раз )

    Другие торренты по теме:

  • Честь семьи Прицци / Prizzis Honor (1985) HDTVRip | А
  • Честь дракона / Tom yum goong / Revenge of the Warrior (2005) BDRip от Scarabey | L1 | Полная версия
  • Любовь и честь / Love and Honor / Bushi no ichibun (2006) BDRip от Rulya74
  • Ваша честь (2007) DVDRip
  • Меч и Магия VII: Сила и Честь / Might and Magic VII: For Blood And Honor (1999) PC | RePack от R.G WinRepack
  • S.T.A.L.K.E.R.: Shadow of Chernobyl - Упавшая звезда Честь наёмника (2013) PC | RePack by SeregA-Lus
  • S.T.A.L.K.E.R.: Shadow of Chernobyl - Упавшая звезда. Честь наёмника (2013) PC | RePack by SeregA-Lus
  • Ёсикава Эйдзи - Честь самурая (2004) FB2, RTF, TXT


    • Комментарии (0):

      Информация

      Информация

        Посетители, находящиеся в группе Гости, не могут оставлять комментарии в данной новости.

        ↓ Меню



        ↓ Опрос

        А Вы добавили сайт в закладки?
        Да
        Не


        Top 10 за месяц (Фильмы)