.
Авторизация | Регистрация
Хочешь лучшие торренты? Добавь свой email!
Добавить
» » Сердце и души / Heart and Souls (1993) WEB-DLRip-AVC | P, A скачать торрент бесплатно




    Сердце и души / Heart and Souls (1993) WEB-DLRip-AVC | P, A скачать торрент бесплатно

    Опубликовал: Админ | Дата: 5-09-2015, 05:01 | Просмотров: 145


    Сердце и души/Heart and Souls (1993) WEB-DLRip

    Создали в: США, Alphaville Films, Stampede Entertainment, Universal Pictures
    Категория жанра: Фэнтези, Драма, Мелодрама, Комедия
    Главный режиссер: Рон Андервуд
    Актеры: Чарльз Гродин, Роберт Дауни мл., Альфре Вудард, Билл Кэлверт, Лиза Лукас, Дэвид Пэймер, Том Сайзмор, Кира Седжвик, Элизабет Шу, Ваня Грин, Джанет МакЛахлан, Стивен Клоусон, Джордж Магуайер, Марк Шейман, Ричард Портноу, Джейкоб Кеннер, Джанетт Колдуэлл, Эрик Ллойд, Дженет Ротблатт

    Описание фильма

    Смерть часто приходит неожиданно, и человек не успевает сделать самое важное, то, без чего жизнь его не будет завершенной. Так случилось с четырьмя разными людьми, погибшими в 1959 году в автобусе, упавшем с моста в Сан-Франциско. Но у них был шанс совершить один, только один поступок уже после смерти — чтобы они покинули этот мир со спокойной душой.

    Релиз подготовил: FAGOT100(NNM-CLUB)
    Время просмотра: 01: 43: 17
    Качество фильма видео: WEB-DLRip-AVC
    Перевод текста: Профессиональный (многоголосый, закадровый), авторский (одноголосый, закадровый) х2
    Язык субтитров: Английский, русский
    Вид субтитров: Вшитые отключаемые
    Информация о видео: AVC, 1024x432 (2.35: 1), 23.976 fps, 2 499 Kbps (0.236 bit/pixel)
    Информация о звуке #1: AC-3, 48.0 KHz, 6 ch, 384 Kbps, CBR (Russian) - многоголосый
    Информация о звуке #2: AC-3, 48.0 KHz, 2 ch, 192 Kbps, CBR (Russian) - А.Гаврилов
    Информация о звуке #3: AC-3, 48.0 KHz, 2 ch, 192 Kbps, CBR (Russian) - В.Горчаков
    Информация о звуке #4: AAC LC, 48.0 KHz, 2 ch, 160 Kbps (English) - оригинал
    Скриншоты:

    Mediainfo:
    code
    Формат : Matroska
    Версия формата : Version 2
    Размер файла : 2, 46 Гбайт
    Продолжительность : 1 ч. 43 м.
    Общий поток : 3406 Кбит/сек
    Название фильма : Heart and Souls (1993) FAGOT100
    Дата кодирования : UTC 2015-09-04 09: 53: 17
    Программа кодирования : mkvmerge v5.3.0 (;I could have danced;) built on Feb 9 2012 10: 38: 07
    Библиотека кодирования : libebml v1.2.3 + libmatroska v1.3.0
    Attachment : Yes
    Видео
    Идентификатор : 1
    Формат : AVC
    Формат/Информация : Advanced Video Codec
    Профиль формата : High@L4.1
    Параметр CABAC формата : Да
    Параметр ReFrames формата : 9 кадров
    Идентификатор кодека : V_MPEG4/ISO/AVC
    Продолжительность : 1 ч. 43 м.
    Номинальный битрейт : 2499 Кбит/сек
    Ширина : 1024 пикселя
    Высота : 432 пикселя
    Соотношение сторон : 2, 40: 1
    Режим частоты кадров : Постоянный
    Частота кадров : 23, 976 кадра/сек
    Цветовое пространство : YUV
    Субдискретизация насыщенности : 4: 2: 0
    Битовая глубина : 8 бит
    Тип развёртки : Прогрессивная
    Бит/(Пиксели*Кадры) : 0.236
    Библиотека кодирования : x264 core 146 r2538 121396c
    Настройки программы : cabac=1/ref=9/deblock=1: -3: -2/analyse=0x3: 0x133/me=umh/subme=10/psy=1/psy_rd=1.00: 0.00/mixed_ref=1/me_range=32/chroma_me=1/trellis=2/8x8dct=1/cqm=0/deadzone=21, 11/fast_pskip=0/chroma_qp_offset=-2/threads=12/lookahead_threads=1/sliced_threads=0/nr=0/decimate=0/interlaced=0/bluray_compat=0/constrained_intra=0/bframes=6/b_pyramid=2/b_adapt=2/b_bias=0/direct=3/weightb=1/open_gop=0/weightp=2/keyint=240/keyint_min=23/scenecut=40/intra_refresh=0/rc=2pass/mbtree=0/bitrate=2499/ratetol=1.0/qcomp=0.60/qpmin=0/qpmax=69/qpstep=4/cplxblur=20.0/qblur=0.5/ip_ratio=1.40/pb_ratio=1.30/aq=1: 1.00
    Язык : English
    Default : Да
    Forced : Нет
    Аудио #1
    Идентификатор : 2
    Формат : AC-3
    Формат/Информация : Audio Coding 3
    Расширение режима : CM (complete main)
    Параметр Endianness формата : Big
    Идентификатор кодека : A_AC3
    Продолжительность : 1 ч. 43 м.
    Вид битрейта : Постоянный
    Битрейт : 384 Кбит/сек
    Каналы : 6 каналов
    Расположение каналов : Front: L C R, Side: L R, LFE
    Частота : 48, 0 КГц
    Битовая глубина : 16 бит
    Метод сжатия : С потерями
    Размер потока : 284 Мбайт (11%)
    Заголовок : AC3 5.1 @ 384 kbps - MVO, iTunes
    Язык : Russian
    Default : Да
    Forced : Нет
    Аудио #2
    Идентификатор : 3
    Формат : AC-3
    Формат/Информация : Audio Coding 3
    Расширение режима : CM (complete main)
    Параметр Endianness формата : Big
    Идентификатор кодека : A_AC3
    Продолжительность : 1 ч. 43 м.
    Вид битрейта : Постоянный
    Битрейт : 192 Кбит/сек
    Каналы : 2 канала
    Расположение каналов : Front: L R
    Частота : 48, 0 КГц
    Битовая глубина : 16 бит
    Метод сжатия : С потерями
    Задержка видео : 1 мс.
    Размер потока : 142 Мбайт (6%)
    Заголовок : AVO Gavrilov
    Язык : Russian
    Default : Нет
    Forced : Нет
    Аудио #3
    Идентификатор : 4
    Формат : AC-3
    Формат/Информация : Audio Coding 3
    Расширение режима : CM (complete main)
    Параметр Endianness формата : Big
    Идентификатор кодека : A_AC3
    Продолжительность : 1 ч. 43 м.
    Вид битрейта : Постоянный
    Битрейт : 192 Кбит/сек
    Каналы : 2 канала
    Расположение каналов : Front: L R
    Частота : 48, 0 КГц
    Битовая глубина : 16 бит
    Метод сжатия : С потерями
    Задержка видео : 1 мс.
    Размер потока : 142 Мбайт (6%)
    Заголовок : AVO Gorchakov
    Язык : Russian
    Default : Нет
    Forced : Нет
    Аудио #4
    Идентификатор : 5
    Формат : AAC
    Формат/Информация : Advanced Audio Codec
    Профиль формата : LC
    Идентификатор кодека : A_AAC
    Продолжительность : 1 ч. 43 м.
    Каналы : 2 канала
    Расположение каналов : Front: L R
    Частота : 48, 0 КГц
    Метод сжатия : С потерями
    Заголовок : оригинал
    Язык : English
    Default : Нет
    Forced : Нет
    Текст #1
    Идентификатор : 6
    Формат : UTF-8
    Идентификатор кодека : S_TEXT/UTF8
    Идентификатор кодека/Информация : UTF-8 Plain Text
    Язык : English
    Default : Нет
    Forced : Нет
    Текст #2
    Идентификатор : 7
    Формат : UTF-8
    Идентификатор кодека : S_TEXT/UTF8
    Идентификатор кодека/Информация : UTF-8 Plain Text
    Язык : Russian
    Default : Нет
    Forced : Нет
    Меню
    00: 00: 00.000 : en: 1
    00: 04: 24.000 : en: 2
    00: 07: 36.000 : en: 3
    00: 10: 38.000 : en: 4
    00: 13: 52.000 : en: 5
    00: 18: 46.000 : en: 6
    00: 25: 26.000 : en: 7
    00: 31: 09.000 : en: 8
    00: 34: 21.000 : en: 9
    00: 44: 06.000 : en: 10
    00: 49: 23.000 : en: 11
    00: 56: 50.000 : en: 12
    01: 05: 12.000 : en: 13
    01: 11: 26.000 : en: 14
    01: 14: 43.000 : en: 15
    01: 19: 53.000 : en: 16
    01: 28: 45.000 : en: 17
    01: 38: 02.000 : en: 18

    Размер скачиваемого торрента: 2.46 GB (2640514964 Bytes)

    Сердце и души/Heart and Souls (1993) WEB-DLRip-AVC | P, A
    загрузка...
    Рейтинг →
     (голосов: 1, оценка 3/5, голосовать можно 1 раз )

    Другие торренты по теме:

  • Сборник - Сердце ты мне подари Радио Шансон для души (2014) MP3
  • Сборник - Роза в сердце. Лучшая 100-ка для души (2014) MP3


    • Комментарии (0):

      Информация

      Информация

        Посетители, находящиеся в группе Гости, не могут оставлять комментарии в данной новости.

        ↓ Меню



        ↓ Опрос

        А Вы добавили сайт в закладки?
        Да
        Не


        Top 10 за месяц (Фильмы)