.
Авторизация | Регистрация
Хочешь лучшие торренты? Добавь свой email!
Добавить
» » Пила 6 / Saw VI (2009) BDRip-AVC | D, A | Directors Cut скачать торрент бесплатно




    Пила 6 / Saw VI (2009) BDRip-AVC | D, A | Directors Cut скачать торрент бесплатно

    Опубликовал: Админ | Дата: 1-09-2015, 05:01 | Просмотров: 174


    Пила 6/Saw VI (2009) BDRip-AVC
    6 заданий, 6 попыток, 6 вариантов

    Создали в: США, Канада, Великобритания, Австралия | Twisted Pictures, Lionsgate
    Категория жанра: Ужасы, Детектив
    Главный режиссер: Кевин Гротерт
    Актеры: Тобин Белл, Костас Мэндилор, Марк Ролстон, Бетси Расселл, Шоуни Смит, Питер Аутербридж, Афина Карканис, Саманта Лемоул, Танедра Ховард, Марти Моро, Шон Ахмед, Джанелл Хатчинсон, Джерри Мендичино, Кэролайн Кейв, Джордж Ньюберн

    Описание фильма
    Специальный агент Страм мертв и нет никаких сомнений в том, что детектив Хоффман является продолжателем дела Конструктора. Но когда ФБР садится ему на след, он вынужден вновь начать Игру, наконец-то расставляющую все точки над i в грандиозном плане Конструктора.
    Возраст: 18+ (зрителям, достигшим 18 лет. запрещено для детей)
    Рейтинг MPAA: R(лицам до 17 лет обязательно присутствие взрослого)
    Время просмотра: 01: 31: 39
    Качество фильма видео: BDRip-AVC
    Перевод текста: Дублированный, авторский, любительский
    Вид субтитров: Вшитые отключаемые
    Язык субтитров: Русский, Английский
    Информация о видео: MPEG-4 AVC/H.264, 2500 Kbps, 1024x576
    Информация о звуке 1: Русский AC3 5.1, 448 Kbps, 48.0 KHz (Дублированный) Blu-ray
    Информация о звуке 2: Русский AC3 5.1, 448 Kbps, 48.0 KHz (Одноголосый закадровый) Ю. Немахов
    Информация о звуке 3: Русский AC3 5.1, 448 Kbps, 48.0 KHz (Одноголосый закадровый) Д. Есарев
    Информация о звуке 4: Английский AC3 5.1, 448 Kbps, 48.0 KHz (Оригинал)
    MediaInfo

    Общее
    Полное имя : Пила 6.mkv
    Формат : Matroska
    Версия формата : Version 1
    Размер файла : 2, 75 Гбайт
    Продолжительность : 1 ч. 31 м.
    Общий поток : 4295 Кбит/сек
    Дата кодирования : UTC 2015-08-25 09: 13: 54
    Программа кодирования : mkvmerge v2.4.1 (;Use Me;) built on Dec 5 2008 18: 30: 05
    Библиотека кодирования : libebml v0.7.7 + libmatroska v0.8.1
    Видео
    Идентификатор : 1
    Формат : AVC
    Формат/Информация : Advanced Video Codec
    Профиль формата : High@L4.1
    Параметр CABAC формата : Да
    Параметр ReFrames формата : 10 кадров
    Идентификатор кодека : V_MPEG4/ISO/AVC
    Продолжительность : 1 ч. 31 м.
    Битрейт : 2500 Кбит/сек
    Ширина : 1024 пикселя
    Высота : 576 пикселей
    Соотношение сторон : 16: 9
    Режим частоты кадров : Постоянный
    Частота кадров : 23, 976 кадра/сек
    Цветовое пространство : YUV
    Субдискретизация насыщенности : 4: 2: 0
    Битовая глубина : 8 бит
    Тип развёртки : Прогрессивная
    Бит/(Пиксели*Кадры) : 0.177
    Размер потока : 1, 55 Гбайт (56%)
    Заголовок : Пила 6 (2009)
    Библиотека кодирования : x264 core 146 r2538 121396c
    Настройки программы : cabac=1/ref=10/deblock=1: -3: -3/analyse=0x3: 0x133/me=umh/subme=10/psy=1/psy_rd=1.00: 0.10/mixed_ref=1/me_range=48/chroma_me=1/trellis=2/8x8dct=1/cqm=0/deadzone=21, 11/fast_pskip=0/chroma_qp_offset=-3/threads=6/lookahead_threads=1/sliced_threads=0/nr=0/decimate=1/interlaced=0/bluray_compat=0/constrained_intra=0/bframes=5/b_pyramid=2/b_adapt=2/b_bias=0/direct=3/weightb=1/open_gop=0/weightp=2/keyint=240/keyint_min=22/scenecut=40/intra_refresh=0/rc_lookahead=40/rc=2pass/mbtree=1/bitrate=2500/ratetol=1.0/qcomp=0.60/qpmin=10/qpmax=51/qpstep=4/cplxblur=20.0/qblur=0.5/ip_ratio=1.40/aq=1: 1.00
    Язык : English
    Default : Да
    Forced : Нет
    Аудио #1
    Идентификатор : 2
    Формат : AC-3
    Формат/Информация : Audio Coding 3
    Расширение режима : CM (complete main)
    Параметр Endianness формата : Big
    Идентификатор кодека : A_AC3
    Продолжительность : 1 ч. 31 м.
    Вид битрейта : Постоянный
    Битрейт : 448 Кбит/сек
    Каналы : 6 каналов
    Расположение каналов : Front: L C R, Side: L R, LFE
    Частота : 48, 0 КГц
    Битовая глубина : 16 бит
    Метод сжатия : С потерями
    Размер потока : 294 Мбайт (10%)
    Заголовок : AC3 (Дублированный) Blu-ray
    Язык : Russian
    Default : Да
    Forced : Нет
    Аудио #2
    Идентификатор : 3
    Формат : AC-3
    Формат/Информация : Audio Coding 3
    Расширение режима : CM (complete main)
    Параметр Endianness формата : Big
    Идентификатор кодека : A_AC3
    Продолжительность : 1 ч. 31 м.
    Вид битрейта : Постоянный
    Битрейт : 448 Кбит/сек
    Каналы : 6 каналов
    Расположение каналов : Front: L C R, Side: L R, LFE
    Частота : 48, 0 КГц
    Битовая глубина : 16 бит
    Метод сжатия : С потерями
    Размер потока : 294 Мбайт (10%)
    Заголовок : AC3 (Одноголосый) Ю. Немахов
    Язык : Russian
    Default : Нет
    Forced : Нет
    Аудио #3
    Идентификатор : 4
    Формат : AC-3
    Формат/Информация : Audio Coding 3
    Расширение режима : CM (complete main)
    Параметр Endianness формата : Big
    Идентификатор кодека : A_AC3
    Продолжительность : 1 ч. 31 м.
    Вид битрейта : Постоянный
    Битрейт : 448 Кбит/сек
    Каналы : 6 каналов
    Расположение каналов : Front: L C R, Side: L R, LFE
    Частота : 48, 0 КГц
    Битовая глубина : 16 бит
    Метод сжатия : С потерями
    Размер потока : 294 Мбайт (10%)
    Заголовок : AC3 (Одноголосый) Д. Есарев
    Язык : Russian
    Default : Нет
    Forced : Нет
    Аудио #4
    Идентификатор : 5
    Формат : AC-3
    Формат/Информация : Audio Coding 3
    Расширение режима : CM (complete main)
    Параметр Endianness формата : Big
    Идентификатор кодека : A_AC3
    Продолжительность : 1 ч. 31 м.
    Вид битрейта : Постоянный
    Битрейт : 448 Кбит/сек
    Каналы : 6 каналов
    Расположение каналов : Front: L C R, Side: L R, LFE
    Частота : 48, 0 КГц
    Битовая глубина : 16 бит
    Метод сжатия : С потерями
    Размер потока : 294 Мбайт (10%)
    Заголовок : AC3 (Оригинал)
    Язык : English
    Default : Нет
    Forced : Нет
    Текст #1
    Идентификатор : 6
    Формат : UTF-8
    Идентификатор кодека : S_TEXT/UTF8
    Идентификатор кодека/Информация : UTF-8 Plain Text
    Заголовок : Русские
    Язык : Russian
    Default : Нет
    Forced : Нет
    Текст #2
    Идентификатор : 7
    Формат : UTF-8
    Идентификатор кодека : S_TEXT/UTF8
    Идентификатор кодека/Информация : UTF-8 Plain Text
    Заголовок : Английские
    Язык : English
    Default : Нет
    Forced : Нет

    Скриншоты:

    Размер скачиваемого торрента: 2.75 GB (2952675253 Bytes)

    Пила 6/Saw VI (2009) BDRip-AVC | D, A | Directors Cut
    загрузка...
    Рейтинг →
     (голосов: 1, оценка 5/5, голосовать можно 1 раз )

    Другие торренты по теме:

  • Пила 7: Последняя глава / Пила 3D / Saw VII: The Final Chapter / Saw 3D (2010) HDRip-AVC от Leo.pard | Directors Cut | D скачать через торрент бесплатно
  • Счастья нет, но есть пила / Negative Happy Chainsaw Edge (2007) DVDRip | L1
  • Пила 7 / Saw 7 (2010) BDRip 1080 от SLAVAANGEL | 3D-Video
  • Пила 3 / Saw III (2007) DVDRip | Расширенная Режиссерская Версия / Unrated Directors Cut
  • OST - Пила 1-7 / Saw 1-7 (2004-2010) MP3
  • Пила 4 / Saw IV (2007) BDRip от HQ-ViDEO | Unrated Directors Cut
  • Пила: Гепталогия / Saw: Geptalogiya (2004-2010) BDRip 720p от NoLimits-Team
  • Пила. Игра на выживание / Saw (2004) Blu-Ray | Режиссёрская версия / Unrated Directors Cut


    • Комментарии (0):

      Информация

      Информация

        Посетители, находящиеся в группе Гости, не могут оставлять комментарии в данной новости.

        ↓ Меню



        ↓ Опрос

        А Вы добавили сайт в закладки?
        Да
        Не


        Top 10 за месяц (Фильмы)