.
Авторизация | Регистрация
Хочешь лучшие торренты? Добавь свой email!
Добавить
» » Последний дракон / The Last Dragon (1985) BDRip 720p | P2 скачать торрент бесплатно




    Последний дракон / The Last Dragon (1985) BDRip 720p | P2 скачать торрент бесплатно

    Опубликовал: Админ | Дата: 31-08-2015, 05:02 | Просмотров: 221



    Детально о кино
    Русское название: Последний дракон
    Русское название в мировом прокате: The Last Dragon
    Создали в: 1985
    Категория жанра: драма, комедия, музыка, боевик
    Главный режиссер: Майкл Шульц

    Актеры
    Таймак, Вэнити, Кристофер Мёрни, Джулиус Кэрри, Фэйт Принс, Лео О’Брайэн, Майк Старр, Джим Муди, Глен Итон, Эрни Рейес мл.

    Сюжет фильма

    Молодой афро-американец Брюс Лерой мечтает стать вторым Брюсом Ли. Он отправляется в большой город в надежде найти учителя, который сделает из него копию кумира — короля боевых искусств. Но неожиданно парнишка влюбляется. Да ни в кого-нибудь, а в популярнейшую поп-певицу Лауру Чарлз! Естественно, звезду окружает разная публика. И только Брюс сможет защитить возлюбленную и от назойливых поклонников, и от местной мафии...

    Снималось в: США/Motown Productions, Delphi III
    Время просмотра: 01: 48: 17
    Перевод текста: Профессиональный (двухголосый)
    Субтитры: Английские
    Файл
    Тип видео: MKV
    Качество фильма: BDRip 720p
    Информация о видео: MPEG-4 AVC, ~5700 Кбит/с, 1280x696/23, 976 fps/High Profile 4.1
    Информация о звуке: 48 kHz, AC3 Dolby Digital, 2/0 (L, R) ch, ~192 kbps
    M/I
    General
    Unique ID : 208470915184902208137036911069724827183 (0x9CD609ADD719AFEBAE8110005BBE5E2F)
    Complete name : F: FILMSПоследний дракон.(1985).BLU-RAY.720p.-=DoMiNo=-.mkv
    Format : Matroska
    Format version : Version 4/Version 2
    File size : 4.47 GiB
    Duration : 1h 48mn
    Overall bit rate : 5 904 Kbps
    Encoded date : UTC 2015-08-30 18: 19: 03
    Writing application : mkvmerge v8.3.0 (;Over the Horizon;) 64bit
    Writing library : libebml v1.3.1 + libmatroska v1.4.2
    DURATION : 01: 47: 47.502000000
    NUMBER_OF_FRAMES : 1760
    NUMBER_OF_BYTES : 56030
    _STATISTICS_WRITING_APP : mkvmerge v8.3.0 (;Over the Horizon;) 64bit
    _STATISTICS_WRITING_DATE_UT : 2015-08-30 18: 19: 03
    _STATISTICS_TAGS : BPS DURATION NUMBER_OF_FRAMES NUMBER_OF_BYTES
    Video
    ID : 1
    Format : AVC
    Format/Info : Advanced Video Codec
    Format profile : High@L4.1
    Format settings, CABAC : Yes
    Format settings, ReFrames : 5 frames
    Codec ID : V_MPEG4/ISO/AVC
    Duration : 1h 48mn
    Bit rate : 5 714 Kbps
    Width : 1 280 pixels
    Height : 696 pixels
    Display aspect ratio : 1.85: 1
    Original display aspect rat : 1.85: 1
    Frame rate mode : Constant
    Frame rate : 23.976 fps
    Color space : YUV
    Chroma subsampling : 4: 2: 0
    Bit depth : 8 bits
    Scan type : Progressive
    Bits/(Pixel*Frame) : 0.268
    Stream size : 4.23 GiB (95%)
    Writing library : x264 core 148 r2579 73ae2d1
    Encoding settings : cabac=1/ref=5/deblock=1: -3: -3/analyse=0x3: 0x113/me=umh/subme=8/psy=1/psy_rd=1.00: 0.00/mixed_ref=1/me_range=16/chroma_me=1/trellis=1/8x8dct=1/cqm=0/deadzone=21, 11/fast_pskip=1/chroma_qp_offset=-2/threads=22/lookahead_threads=3/sliced_threads=0/nr=0/decimate=1/interlaced=0/bluray_compat=0/constrained_intra=0/bframes=3/b_pyramid=2/b_adapt=2/b_bias=0/direct=3/weightb=1/open_gop=0/weightp=2/keyint=240/keyint_min=24/scenecut=40/intra_refresh=0/rc_lookahead=50/rc=2pass/mbtree=1/bitrate=5714/ratetol=1.0/qcomp=0.60/qpmin=0/qpmax=69/qpstep=4/cplxblur=20.0/qblur=0.5/ip_ratio=1.40/aq=1: 1.00
    Language : English
    Default : Yes
    Forced : No
    DURATION : 01: 48: 17.491000000
    NUMBER_OF_FRAMES : 155784
    NUMBER_OF_BYTES : 4637906603
    _STATISTICS_WRITING_APP : mkvmerge v8.3.0 (;Over the Horizon;) 64bit
    _STATISTICS_WRITING_DATE_UT : 2015-08-30 18: 19: 03
    _STATISTICS_TAGS : BPS DURATION NUMBER_OF_FRAMES NUMBER_OF_BYTES
    Audio
    ID : 2
    Format : AC-3
    Format/Info : Audio Coding 3
    Mode extension : CM (complete main)
    Format settings, Endianness : Big
    Codec ID : A_AC3
    Duration : 1h 48mn
    Bit rate mode : Constant
    Bit rate : 192 Kbps
    Channel(s) : 2 channels
    Channel positions : Front: L R
    Sampling rate : 48.0 KHz
    Compression mode : Lossy
    Stream size : 149 MiB (3%)
    Title : DVO
    Language : Russian
    Default : Yes
    Forced : No
    Text
    ID : 3
    Format : UTF-8
    Codec ID : S_TEXT/UTF8
    Codec ID/Info : UTF-8 Plain Text
    Title : Eng SDH
    Language : English
    Default : No
    Forced : No

    Размер скачиваемого торрента: 4.47 GB (4795472797 Bytes)

    Последний дракон/The Last Dragon (1985) BDRip 720p | P2
    загрузка...
    Рейтинг →
     (голосов: 1, оценка 3/5, голосовать можно 1 раз )

    Другие торренты по теме:

  • Крокодилы: Последний дракон / Crocodiles: The Last Dragon (2009) HDTVRip-AVC от Тorrent-Хzona


    • Комментарии (0):

      Информация

      Информация

        Посетители, находящиеся в группе Гости, не могут оставлять комментарии в данной новости.

        ↓ Меню



        ↓ Опрос

        А Вы добавили сайт в закладки?
        Да
        Не


        Top 10 за месяц (Фильмы)