.
Авторизация | Регистрация
Хочешь лучшие торренты? Добавь свой email!
Добавить
» » Великий утешитель (1933) DVDRip от New-Team скачать торрент бесплатно




    Великий утешитель (1933) DVDRip от New-Team скачать торрент бесплатно

    Опубликовал: Админ | Дата: 29-08-2015, 05:01 | Просмотров: 172



    Снималось в: СССР
    Создали в: Межрабпомфильм
    Категория жанра: драма
    Создали в: 1933
    Время просмотра: 01: 32: 03
    Перевод текста: не требуется
    Оригинальная аудиодорожка: русский
    Субтитры подготовлены: нет
    Главный режиссер: Лев Кулешов

    Актеры

    Константин Хохлов, Иван Новосельцев, Василий Ковригин, Андрей Файт, Даниил Введенский, Родд Вейланд, О.Раевская, С.Слетов, Александра Хохлова, Галина Кравченко, Петр Галаджев, В.Лопатина, Михаил Доронин, Андрей Горчилин...
    Описание:
    Главный герой, известный писатель, пребывает в тюрьме. Особых провинностей за ним не числится. Он даже пользуется правом свободного передвижения. Внутри тюрьмы, разумеется. Администрация ценит писателя потому, что, сидя за решеткой, он сочиняет красивые, убаюкивающие историйки со счастливым концом. Читающая публика воспитана на его душещипательных сюжетцах и желает строить по ним свою жизнь. И, что весьма примечательно, едва ли не главным поклонником подобных сочинений является начальник тюрьмы. Свобода, данная писателю в рамках его тюремного бытия, кажется ему достаточной. Он покорен судьбе и не представляет иного существования.



    Исходник: DVD5 R5
    Тип релиза: DVDRip
    Контейнер: AVI
    Информация о видео: 608x464 (4: 3), 25 fps, XviD ~ 993 kbps avg, 0.141 bit/pixel
    Информация о звуке: 48 kHz, MP3 2.0, 128 kbps
    Раздача от:
    MediaInfo

    Общее
    Полное имя : Velikiy.uteshitel.1933.DVDRip-745_New-team_by_AVP_Studio.avi
    Формат : AVI
    Формат/Информация : Audio Video Interleave
    Размер файла : 745 Мбайт
    Продолжительность : 1 ч. 32 м.
    Общий поток : 1131 Кбит/сек
    Программа кодирования : VirtualDubModRus 1.5.10.2 (build 2542/release)
    Библиотека кодирования : VirtualDubMod build 2542/release
    Видео
    Идентификатор : 0
    Формат : MPEG-4 Visual
    Профиль формата : Advanced Simple@L5
    Параметр BVOP формата : 1
    Параметр QPel формата : Нет
    Параметр GMC формата : Без точки перехода
    Параметр матрицы формата : Выборочная
    Идентификатор кодека : XVID
    Идентификатор кодека/Подсказка : XviD
    Продолжительность : 1 ч. 32 м.
    Битрейт : 993 Кбит/сек
    Ширина : 608 пикселей
    Высота : 464 пикселя
    Соотношение сторон : 4: 3
    Частота кадров : 25, 000 кадров/сек
    Цветовое пространство : YUV
    Субдискретизация насыщенности : 4: 2: 0
    Битовая глубина : 8 бит
    Тип развёртки : Прогрессивная
    Метод сжатия : С потерями
    Бит/(Пиксели*Кадры) : 0.141
    Размер потока : 654 Мбайт (88%)
    Библиотека кодирования : XviD 73
    Аудио
    Идентификатор : 1
    Формат : MPEG Audio
    Версия формата : Version 1
    Профиль формата : Layer 3
    Идентификатор кодека : 55
    Идентификатор кодека/Подсказка : MP3
    Продолжительность : 1 ч. 32 м.
    Вид битрейта : Постоянный
    Битрейт : 128 Кбит/сек
    Каналы : 2 канала
    Частота : 48, 0 КГц
    Метод сжатия : С потерями
    Размер потока : 84, 3 Мбайт (11%)
    Выравнивание : Соединение по промежуткам
    Продолжительность промежутка : 40 мс. (1, 00 видеокадр)
    Время предзагрузки промежутка : 504 мс.
    Библиотека кодирования : LAME3.99r
    Залил: AVPStudio
    Размер скачиваемого торрента: 744.78 MB (780959744 Bytes)


    Великий утешитель (1933) DVDRip от New-Team
    загрузка...
    Рейтинг →
     (голосов: 1, оценка 5/5, голосовать можно 1 раз )

    Другие торренты по теме:

  • Великий утешитель / 1933 / РУ / DVDRip
  • Великий утешитель (1933) DVDRip-AVC от New-Team
  • Одна / Великий утешитель / Любовь и ненависть / Строгий юноша / 1931-1936 / РУ / DVD-5


    • Комментарии (0):

      Информация

      Информация

        Посетители, находящиеся в группе Гости, не могут оставлять комментарии в данной новости.

        ↓ Меню



        ↓ Опрос

        А Вы добавили сайт в закладки?
        Да
        Не


        Top 10 за месяц (Фильмы)