.
Авторизация | Регистрация
Хочешь лучшие торренты? Добавь свой email!
Добавить
» » Голод / The Hunger (1983) BDRip 720p | A, P скачать торрент бесплатно




    Голод / The Hunger (1983) BDRip 720p | A, P скачать торрент бесплатно

    Опубликовал: Админ | Дата: 27-08-2015, 05:00 | Просмотров: 156



    Детально о кино
    Русское название: Голод
    Русское название в мировом прокате: The Hunger
    Создали в: 1983
    Категория жанра: Ужасы, мелодрама
    Главный режиссер: Тони Скотт

    Актеры
    Катрин Денев, Дэвид Боуи, Сьюзен Сарандон, Клифф Де Янг, Бет Элерс, Дэн Хедайя, Руфус Коллинз, Сюзэнн Бертиш, Джеймс Обри, Энн Магнусон, Джон Стивен Хилл, Шэйн Риммер, Дуглас Ламберт, Бесси Лав, Джон Пэнкоу, Уиллем Дефо, Софи Уорд, Филип Сайер, Лизи Хилболд, Майкл Хоу, Эдвард Уайли, Ричард Роблз, Оки Вамбу, Джордж Камиллер, Кент Миллер, Фред Йокерс, Сьюзэн Хантер, Джеймс Вассенич, Аллан Ричардс, Хилари Сикс, Кэроли-Энн Скотт, Джейн Ливз, Питер Мерфи

    Сюжет фильма

    Холодная и прекрасная вампирша Мириэм, блуждает в потемках модных ночных клубов Манхэттена в поисках свежей крови. Джон - ее двухсотлетний партнер, с которым бессмертная героиня делит не только свою тайную жизнь, но и тайные страсти! Но, когда ее верный напарник Джон внезапно начинает необъяснимым образом стареть, к нему на помощь является обворожительная женщина-ученый, которая становится частью ужасного треугольника, сотканного из желания, секса и крови...
    Завораживющий, очень красиво снятый фильм с сочетанием ужасов и эротики о вампирше Мириам (Денев), которой необходима кровь, чтобы поддерживать в себе вечную жизнь и молодость. Черные кожаные костюмы, черные очки, секс, эстетически выдержанная стилизация смерти, крови и эротики в сочетании с соответствующей музыкой.
    Фильм можно пересматривать много раз, каждый раз угадывая как в зрительном, так и в содержательном плане что-то новое на уровне воображения. Каждый кадр - шедевр фотографии.

    Снималось в: Великобритания
    Киностудия: Peerford Ltd., Effects Associates Ltd.
    Время просмотра: 01: 36: 30
    Перевод текста: Профессиональный (многоголосый, закадровый)/Авторский одноголосый (Михалев)
    Файл
    Кодек для видео: H.264
    Качество фильма: BDRip 720p
    Информация о видео: MPEG-4 AVC, ~4500 Кбит/с, 1280x536
    Информация о звуке№1: 48 kHz, АС3, 2 ch, 192 kbps одноголосый, Михалев
    Информация о звуке№2: 48 kHz, АС3, 2 ch, 192 kbps многоголосый
    Субтитры: нет
    M/I
    General
    Unique ID : 86681046176626070518824764854498712686 (0x41362988D69ED49D9317FEE835B75C6E)
    Complete name : F: FILMSГолод.(1983).BLU-RAY.720p.-=DoMiNo=-.mkv
    Format : Matroska
    Format version : Version 4/Version 2
    File size : 3.29 GiB
    Duration : 1h 36mn
    Overall bit rate : 4 886 Kbps
    Writing application : XviD4PSP 7.0.170
    Writing library : Lavf56.25.101
    ENCODING_INFO : BluRay MKV 720p/H264 X264 VBR-2P 4500kbps Custom/AC3 COPY/AC3 COPY
    Video
    ID : 1
    Format : AVC
    Format/Info : Advanced Video Codec
    Format profile : High@L4.1
    Format settings, CABAC : Yes
    Format settings, ReFrames : 9 frames
    Codec ID : V_MPEG4/ISO/AVC
    Duration : 1h 36mn
    Bit rate : 4 500 Kbps
    Width : 1 280 pixels
    Height : 536 pixels
    Display aspect ratio : 2.40: 1
    Frame rate mode : Constant
    Frame rate : 23.976 fps
    Color space : YUV
    Chroma subsampling : 4: 2: 0
    Bit depth : 8 bits
    Scan type : Progressive
    Bits/(Pixel*Frame) : 0.274
    Stream size : 2.97 GiB (90%)
    Writing library : x264 core 148 r2597M e86f3a1
    Encoding settings : cabac=1/ref=9/deblock=1: -3: -3/analyse=0x3: 0x133/me=umh/subme=11/psy=1/psy_rd=1.00: 0.20/mixed_ref=1/me_range=32/chroma_me=1/trellis=2/8x8dct=1/cqm=0/deadzone=21, 11/fast_pskip=0/chroma_qp_offset=-3/threads=5/lookahead_threads=1/sliced_threads=0/nr=0/decimate=1/interlaced=0/bluray_compat=0/constrained_intra=0/bframes=8/b_pyramid=2/b_adapt=2/b_bias=0/direct=3/weightb=1/open_gop=0/weightp=2/keyint=230/keyint_min=23/scenecut=40/intra_refresh=0/rc=2pass/mbtree=0/bitrate=4500/ratetol=1.0/qcomp=0.60/qpmin=0/qpmax=69/qpstep=4/cplxblur=20.0/qblur=0.5/ip_ratio=1.40/pb_ratio=1.30/aq=1: 1.00
    Default : Yes
    Forced : No
    Audio #1
    ID : 2
    Format : AC-3
    Format/Info : Audio Coding 3
    Mode extension : CM (complete main)
    Format settings, Endianness : Big
    Codec ID : A_AC3
    Duration : 1h 36mn
    Bit rate mode : Constant
    Bit rate : 192 Kbps
    Channel(s) : 2 channels
    Channel positions : Front: L R
    Sampling rate : 48.0 KHz
    Bit depth : 32 bits
    Compression mode : Lossy
    Stream size : 133 MiB (4%)
    Language : Russian
    Default : Yes
    Forced : No
    Audio #2
    ID : 3
    Format : AC-3
    Format/Info : Audio Coding 3
    Mode extension : CM (complete main)
    Format settings, Endianness : Big
    Codec ID : A_AC3
    Duration : 1h 36mn
    Bit rate mode : Constant
    Bit rate : 192 Kbps
    Channel(s) : 2 channels
    Channel positions : Front: L R
    Sampling rate : 48.0 KHz
    Bit depth : 32 bits
    Compression mode : Lossy
    Stream size : 133 MiB (4%)
    Language : Russian
    Default : No
    Forced : No
    Menu
    00: 00: 00.000 : : Глава 1
    00: 03: 10.899 : : Глава 2
    00: 06: 30.098 : : Глава 3
    00: 12: 29.373 : : Глава 4
    00: 16: 20.937 : : Глава 5
    00: 21: 09.851 : : Глава 6
    00: 27: 52.295 : : Глава 7
    00: 32: 26.152 : : Глава 8
    00: 38: 40.483 : : Глава 9
    00: 44: 49.893 : : Глава 10
    00: 48: 23.775 : : Глава 11
    00: 52: 23.222 : : Глава 12
    00: 56: 13.327 : : Глава 13
    01: 00: 05.601 : : Глава 14
    01: 03: 30.431 : : Глава 15
    01: 08: 30.145 : : Глава 16
    01: 10: 41.904 : : Глава 17
    01: 13: 53.511 : : Глава 18
    01: 16: 47.225 : : Глава 19
    01: 21: 12.033 : : Глава 20
    01: 24: 44.119 : : Глава 21
    01: 29: 48.466 : : Глава 22
    01: 33: 13.712 : : Глава 23
    01: 36: 29.783 : : Глава 24

    Размер скачиваемого торрента: 3.29 GB (3536411256 Bytes)

    Голод/The Hunger (1983) BDRip 720p | A, P
    загрузка...
    Рейтинг →
     (голосов: 1, оценка 3/5, голосовать можно 1 раз )

    Другие торренты по теме:

  • Голод / Hunger (2008) BDRip 720p скачать через торрент бесплатно
  • Голод / Hunger (2008) HDRip-AVC | iPhone скачать через торрент бесплатно
  • Голод / Hunger (2008) BDRip 720p | ATV | A
  • Голод / Hunger (2008) BDRip-AVC | A
  • Голод / Hunger (2009) DVDRemux | P
  • Голод / Hunger (2009)
  • Голод / Hunger (2009) HDRip-AVC | P | Лицензия
  • Голод / Hunger (2009) BDRip 1080p | P


    • Комментарии (0):

      Информация

      Информация

        Посетители, находящиеся в группе Гости, не могут оставлять комментарии в данной новости.

        ↓ Меню



        ↓ Опрос

        А Вы добавили сайт в закладки?
        Да
        Не


        Top 10 за месяц (Фильмы)