.
Авторизация | Регистрация
Хочешь лучшие торренты? Добавь свой email!
Добавить
» » Волк с Уолл-стрит / The Wolf of Wall Street (2013) DVD5 скачать торрент бесплатно




    Волк с Уолл-стрит / The Wolf of Wall Street (2013) DVD5 скачать торрент бесплатно

    Опубликовал: Админ | Дата: 21-08-2015, 05:01 | Просмотров: 144



    Создали в: 2013
    Создали в: США/Paramount, Red Granite Pictures, EMJAG Productions, Appian Way, Sikelia Productions
    Категория жанра: Драма, комедия, криминал, биография
    Главный режиссер: Мартин Скорсезе
    Продюсеры: Риза Азиз, Леонардо ДиКаприо, Джои МакФарланд
    Актеры: Леонардо ДиКаприо, Джона Хилл, Марго Робби, Кайл Чандлер, Роб Райнер, П.Дж. Бирн, Джон Бернтал, Кристин Милиоти, Жан Дюжарден, Мэттью МакКонахи
    Описание фильма:
    1987 год. Джордан Белфорт становится брокером в успешном инвестиционном банке. Вскоре банк закрывается после внезапного обвала индекса Доу-Джонса. По совету жены Терезы Джордан устраивается в небольшое заведение, занимающееся мелкими акциями. Его настойчивый стиль общения с клиентами и врождённая харизма быстро даёт свои плоды. Он знакомится с соседом по дому Донни, торговцем, который сразу находит общий язык с Джорданом и решает открыть с ним собственную фирму. В качестве сотрудников они нанимают нескольких друзей Белфорта, его отца Макса и называют компанию Стрэттон Оукмонт. В свободное от работы время Джордан прожигает жизнь: лавирует от одной вечеринки к другой, вступает в сексуальные отношения с проститутками, употребляет множество наркотических препаратов, в том числе кокаин и кваалюд. Однажды наступает момент, когда быстрым обогащением Белфорта начинает интересоваться агент ФБР…
    Перевод текста: Дублированный
    Субтитры: Русские, английские
    Дата мировой премьеры: 17 декабря 2013
    Дата российской премьеры: 6 февраля 2014, West
    Дата выхода DVD/Blu-Ray релиза: 4 декабря 2014, West Video
    Время просмотра: 02: 59: 41
    Качество фильма видео: DVD5 BD - DVD
    Информация о видео: MPEG-2, 720x480@853x480 (NTSC 16: 9), ~2700 Кбит/сек
    Информация о звуке 1: AC3 5.1, 384 Кбит/сек Русский - дублированный
    Информация о звуке 2: AC3 5.1, 384 Кбит/сек Английский - оригинал
    DVDInfo:
    Title: The Wolf of Wall Street (2013) BD-DVD5
    Size: 4.37 Gb ( 4 586 614, 00 KBytes ) - DVD-5
    Enabled regions: 1, 2, 3, 4, 5, 6, 7, 8
    VTS_01 :
    Play Length: 02: 59: 41
    Video: NTSC 16: 9 (720x480) VBR, Auto Letterboxed
    Audio:
    Russian (Dolby AC3, 6 ch)
    English (Dolby AC3, 6 ch)
    Subtitles:
    Russian
    English
    * Menus Information *
    VIDEO_TS Menu
    Video:
    NTSC 4: 3 (720x480) VBR
    English Language Unit :
    Title Menu
    VTS_01 Menu
    Video:
    NTSC 16: 9 (720x480) VBR
    Auto Letterboxed
    Audio:
    Not specified (Dolby AC3, 2 ch)
    English Language Unit :
    Root Menu
    MediaInfo:
    Общее
    Полное имя : G: ВидеоThe Wolf of Wall Street (2013) BD-DVD5VIDEO_TSVTS_01_2.VOB
    Формат : MPEG-PS
    Размер файла : 1024 Мбайт
    Продолжительность : 40 м.
    Режим общего битрейта : Переменный
    Общий поток : 3559 Кбит/сек
    Видео
    Идентификатор : 224 (0xE0)
    Формат : MPEG Video
    Версия формата : Version 2
    Профиль формата : Main@Main
    Параметр BVOP формата : Да
    Параметр матрицы формата : Выборочная
    Параметр GOP формата : Variable
    Продолжительность : 40 м.
    Вид битрейта : Переменный
    Битрейт : 2720 Кбит/сек
    Максимальный битрейт : 8000 Кбит/сек
    Ширина : 720 пикселей
    Высота : 480 пикселей
    Соотношение сторон : 16: 9
    Частота кадров : 23, 976 кадра/сек
    Стандарт вещания : NTSC
    Цветовое пространство : YUV
    Субдискретизация насыщенности : 4: 2: 0
    Битовая глубина : 8 бит
    Тип развёртки : Прогрессивная
    Порядок развёртки : 2: 3 Pulldown
    Метод сжатия : С потерями
    Бит/(Пиксели*Кадры) : 0.328
    Временной код первого кадра : 00: 40: 52: 11
    Оригинал временного кода : Group of pictures t_head
    GOP, открыто/закрыто : Открыто
    Размер потока : 783 Мбайт (76%)
    Аудио #1
    Идентификатор : 189 (0xBD)-128 (0x80)
    Формат : AC-3
    Формат/Информация : Audio Coding 3
    Расширение режима : CM (complete main)
    Параметр Endianness формата : Big
    Режим смешивания : DVD-Video
    Продолжительность : 40 м.
    Вид битрейта : Постоянный
    Битрейт : 384 Кбит/сек
    Каналы : 6 каналов
    Расположение каналов : Front: L C R, Side: L R, LFE
    Частота : 48, 0 КГц
    Битовая глубина : 16 бит
    Метод сжатия : С потерями
    Задержка видео : -662 мс.
    Размер потока : 110 Мбайт (11%)
    Аудио #2
    Идентификатор : 189 (0xBD)-129 (0x81)
    Формат : AC-3
    Формат/Информация : Audio Coding 3
    Расширение режима : CM (complete main)
    Параметр Endianness формата : Big
    Режим смешивания : DVD-Video
    Продолжительность : 40 м.
    Вид битрейта : Постоянный
    Битрейт : 384 Кбит/сек
    Каналы : 6 каналов
    Расположение каналов : Front: L C R, Side: L R, LFE
    Частота : 48, 0 КГц
    Битовая глубина : 16 бит
    Метод сжатия : С потерями
    Задержка видео : -662 мс.
    Размер потока : 110 Мбайт (11%)
    Текст #1
    Идентификатор : 189 (0xBD)-32 (0x20)
    Формат : RLE
    Формат/Информация : Run-length encoding
    Режим смешивания : DVD-Video
    Продолжительность : 40 м.
    Задержка видео : 1 с. 151 мс.
    Текст #2
    Идентификатор : 189 (0xBD)-33 (0x21)
    Формат : RLE
    Формат/Информация : Run-length encoding
    Режим смешивания : DVD-Video
    Продолжительность : 40 м.
    Задержка видео : 417 мс.
    Меню
    Доп. информация:
    Исходником видео, звуковых дорожек и меню послужил Blu-Ray. Субтитры и чаптеры взяты с BDRip. Видео обрабатывалось Rhozet Carbon Coder в два прохода. DVD меню статичное на английском языке. Собран DVD в DVD-lab PRO 2.
    Использовались программы: tsMuxeR, MKVExtractGUI2, Carbon Coder, DVD ReMake Pro, Adobe PhotoShop, DVD-lab PRO 2, MuxMan
    Скриншоты меню:

    Скриншоты:

    Залил: Саша 1992
    Размер скачиваемого торрента: 4.37 GB (4696692736 Bytes)

    Волк с Уолл-стрит/The Wolf of Wall Street (2013) DVD5
    загрузка...
    Рейтинг →
     (голосов: 1, оценка 4/5, голосовать можно 1 раз )

    Другие торренты по теме:

  • Волк с Уолл-стрит / The Wolf of Wall Street (2013) DVDScr | Звук с TS скачать через торрент бесплатно
  • Волк с Уолл-стрит / The Wolf of Wall Street (2013) HD 1080p | L1 | Трейлер
  • Волк с Уолл-стрит
  • Волк с Уолл-стрит / The Wolf of Wall Street (2013) DVDScr-AVC | iPhone скачать через торрент бесплатно
  • Волк с Уолл-стрит / The Wolf of Wall Street (2013) DVDScr | L1 скачать через торрент бесплатно
  • VA - Волк с Уолл-стрит / The Wolf of Wall Street - Soundtrack (2013) MP3 скачать через торрент бесплатно
  • Волк с Уолл-стрит / The Wolf of Wall Street (2013) DVDScr | P2 скачать через торрент бесплатно
  • Волк с Уолл-стрит / The Wolf of Wall Street (2013) DVDScr | Звук c TS скачать через торрент бесплатно


    • Комментарии (0):

      Информация

      Информация

        Посетители, находящиеся в группе Гости, не могут оставлять комментарии в данной новости.

        ↓ Меню



        ↓ Опрос

        А Вы добавили сайт в закладки?
        Да
        Не


        Top 10 за месяц (Фильмы)