.
Авторизация | Регистрация
Хочешь лучшие торренты? Добавь свой email!
Добавить
» » Харлей Дэвидсон и ковбой Мальборо / Harley Davidson and the Marlboro Man (1991) BDRip 720p by msltel скачать торрент бесплатно




    Харлей Дэвидсон и ковбой Мальборо / Harley Davidson and the Marlboro Man (1991) BDRip 720p by msltel скачать торрент бесплатно

    Опубликовал: Админ | Дата: 18-08-2015, 05:01 | Просмотров: 147



    Русское название: Харлей Дэвидсон и ковбой Мальборо
    Русское название в мировом прокате: Harley Davidson and the Marlboro Man
    Создали в: 1991
    Снималось в: США
    Категория жанра: боевик, триллер, драма, криминал, вестерн
    Время просмотра: 01: 38: 27
    Перевод текста: профессиональный многоголосый, профессиональный двухголосый, авторский
    Главный режиссёр: Саймон Уинсер

    Актеры
    Микки Рурк, Дон Джонсон, Челси Филд, Дэниэл Болдуин, Джанкарло Эспозито, Ванесса Уильямс, Роберт Гинти, Тиа Каррере, Джулиус Харрис, Элой Касадос, Биг Джон Стадд, Том Сайзмор, Митци Мартин, Келли Ху, Джеймс Нардини, Бренан Т. Бейрд, Брэнском Ричмонд, Стэйси Эллиотт, Ганс Хоус, Бобби Тайлер, Джордан Лунд, Стив Таннен, Билли Д. Лукас, Свен-Оле Торсен, Дэннис Скотт, Коуди Гленн, Мишель Лэйбоурн, Дебби Линн Росс, Майкл Вальверде, Стэн Ивар, Стэн Чэмберс, Р.Дж. Чэмберс, Тереза Сан-Николас
    Описание: Микки Рурк и Дон Джонсон с безудержной мощью и непередаваемым юмором сыграли грубоватых и одновременно сердечных Робин Гудов нашего времени. В беззаконном мире конца 80-х некий банк грубо пытается отнять принадлежащий бывшему рокеру бар. Бродяги Харлей Дэвидсон и ковбой Марльборо решили помочь своему старому другу и ограбить инкассаторов банка. Однако в бронемашине оказываются не деньги, а наркотики. Теперь их преследует банда прихвостней коррумпированного банкира. Скоростные мотоциклы, динамичное действие и мощное современное оружие составляют взрывоопасный рецепт этого футуристического приключенческого фильма.

    Качество фильма: BDRip 720p Сравнение с исходником
    Тип видео: MKV
    Информация о видео: MPEG-4 AVC, 4536 Kбит/с, 1280х694, 23, 976 кадра/с
    Информация о звуке 1: русский, AC3, 192 kbps, 2 ch, 48 kHz профессиональный многоголосый, HTB
    Информация о звуке 2: русский, AC3, 192 kbps, 6 ch, 48 kHz профессиональный двухголосый, Лазер Видео
    Информация о звуке 3: русский, AC3, 192 kbps, 6 ch, 48 kHz авторский, Алексей Михалёв
    Информация о звуке 4: русский, AC3, 192 kbps, 6 ch, 48 kHz авторский, Дмитрий Пучков - Гоблин, с ненормативной лексикой
    Внешние файлы
    Информация о звуке: русский, AC3, 192 kbps, 2 ch, 48 kHz профессиональный многоголосый, iTunes Russia
    Информация о звуке: русский, AC3, 192 kbps, 2 ch, 48 kHz профессиональный многоголосый, вариант 1
    Информация о звуке: русский, AC3, 192 kbps, 2 ch, 48 kHz профессиональный многоголосый, вариант 2
    Информация о звуке: русский, AC3, 192 kbps, 2 ch, 48 kHz профессиональный многоголосый, Варус видео
    Информация о звуке: русский, AC3, 192 kbps, 2 ch, 48 kHz профессиональный многоголосый, ОРТ
    Информация о звуке: русский, AC3, 192 kbps, 2 ch, 48 kHz профессиональный многоголосый, Фортуна
    Информация о звуке: русский, AC3, 192 kbps, 2 ch, 48 kHz профессиональный двухголосый, Союз
    Информация о звуке: украинский, AC3, 192 kbps, 2 ch, 48 kHz профессиональный многоголосый, Так треба продакшн
    Информация о звуке: украинский, AC3, 192 kbps, 2 ch, 48 kHz профессиональный двухголосый, 1+1
    Информация о звуке: русский, AC3, 192 kbps, 2 ch, 48 kHz авторский, Юрий Живов
    Информация о звуке: английский, AC3, 192 kbps, 2 ch, 48 kHz оригинал
    Субтитры: русские
    Субтитры: английские
    Инфо-файл
    Общее
    Полное имя : D: VideoХарли Дэвидсон.1991.720pХарли Дэвидсон.1991.AVO.rus.Ю.Живов.ac3
    Формат : AC-3
    Формат/Информация : Audio Coding 3
    Размер файла : 135 Мбайт
    Продолжительность : 1 ч. 38 м.
    Режим общего битрейта : Постоянный
    Общий поток : 192 Кбит/сек
    Аудио
    Формат : AC-3
    Формат/Информация : Audio Coding 3
    Расширение режима : CM (complete main)
    Параметр Endianness формата : Big
    Продолжительность : 1 ч. 38 м.
    Вид битрейта : Постоянный
    Битрейт : 192 Кбит/сек
    Каналы : 2 канала
    Расположение каналов : Front: L R
    Частота : 48, 0 КГц
    Метод сжатия : С потерями
    Размер потока : 135 Мбайт (100%)
    Общее
    Уникальный идентификатор : 190389839588859238056501843468106287354 (0x8F3BBFD33F494362AC95B94522F348FA)
    Полное имя : D: VideoХарли Дэвидсон.1991.720pХарли Дэвидсон.1991.BDRip.720p.mkv
    Формат : Matroska
    Версия формата : Version 4/Version 2
    Размер файла : 3, 72 Гбайт
    Продолжительность : 1 ч. 38 м.
    Общий поток : 5412 Кбит/сек
    Название фильма : BDRip -- STarankov
    Дата кодирования : UTC 2015-08-17 12: 56: 46
    Программа кодирования : mkvmerge v8.2.0 (;World of Adventure;) 64bit
    Библиотека кодирования : libebml v1.3.1 + libmatroska v1.4.2
    DURATION : 01: 38: 27.040000000
    NUMBER_OF_FRAMES : 184595
    NUMBER_OF_BYTES : 141768960
    _STATISTICS_WRITING_APP : mkvmerge v8.2.0 (;World of Adventure;) 64bit
    _STATISTICS_WRITING_DATE_UTC : 2015-08-17 12: 56: 46
    _STATISTICS_TAGS : BPS DURATION NUMBER_OF_FRAMES NUMBER_OF_BYTES
    Видео
    Идентификатор : 1
    Формат : AVC
    Формат/Информация : Advanced Video Codec
    Профиль формата : High@L4.1
    Параметр CABAC формата : Да
    Параметр ReFrames формата : 9 кадров
    Идентификатор кодека : V_MPEG4/ISO/AVC
    Продолжительность : 1 ч. 38 м.
    Битрейт : 4536 Кбит/сек
    Ширина : 1280 пикселей
    Высота : 694 пикселя
    Соотношение сторон : 1, 85: 1
    Режим частоты кадров : Постоянный
    Частота кадров : 23, 976 кадра/сек
    Цветовое пространство : YUV
    Субдискретизация насыщенности : 4: 2: 0
    Битовая глубина : 8 бит
    Тип развёртки : Прогрессивная
    Бит/(Пиксели*Кадры) : 0.213
    Размер потока : 3, 12 Гбайт (84%)
    Библиотека кодирования : x264 core 146 r2538 121396c
    Залил: msltel
    Размер скачиваемого торрента: 5.17 GB (5555750626 Bytes)


    Харлей Дэвидсон и ковбой Мальборо/Harley Davidson and the Marlboro Man (1991) BDRip 720p by msltel
    загрузка...
    Рейтинг →
     (голосов: 1, оценка 3/5, голосовать можно 1 раз )

    Другие торренты по теме:

  • Харлей Дэвидсон и ковбой Мальборо / Harley Davidson and the Marlboro Man (1991) WEB-DL 720p от HDCLUB
  • Харлей Дэвидсон и ковбой Мальборо / Harley Davidson and the Marlboro Man (1991) HDRip от Leon-masl | P, A
  • Харлей Дэвидсон и ковбой Мальборо / Harley Davidson and the Marlboro Man (1991) BDRip | A
  • Харлей Дэвидсон и ковбой Мальборо / Harley Davidson and the Marlboro Man / 1991 / АП (Гаврилов, Михалев, Пучков), СТ / Blu-Ray Remux (1080p)


    • Комментарии (0):

      Информация

      Информация

        Посетители, находящиеся в группе Гости, не могут оставлять комментарии в данной новости.

        ↓ Меню



        ↓ Опрос

        А Вы добавили сайт в закладки?
        Да
        Не


        Top 10 за месяц (Фильмы)