.
Авторизация | Регистрация
Хочешь лучшие торренты? Добавь свой email!
Добавить
» » Сорванец / Tomboy (2011) BDRemux 1080p | P2, L, L1 скачать торрент бесплатно




    Сорванец / Tomboy (2011) BDRemux 1080p | P2, L, L1 скачать торрент бесплатно

    Опубликовал: Админ | Дата: 17-08-2015, 05:01 | Просмотров: 191



    Детально о кино
    Русское название: Сорванец
    Русское название в мировом прокате: Tomboy
    Создали в: 2011
    Категория жанра: драма
    Главный режиссер: Селин Скьямма

    Актеры
    Зои Хэран , Малонн Левана , Жанна Диссон, Софи Каттани, Мэтью Деми, Йохан Вентре, Ноа Вентре, Шейенн Лене, Кристелль Барас

    Сюжет фильма
    Лоре десять лет. Вместе с родителями и младшей сестренкой Жанной она недавно переехала жить в новое место. На улице лето; соседские ребята весь день играют во дворе, но Лора пока что никого не знает. Она знакомится с Лизой, девочкой своего же возраста, и притворяется перед ней мальчиком. Так, Лора становится Михаэлем и начинает дружить с другими детьми. Постепенно они с Лизой сближаются, отчего положение Лоры-Михаэля становится все более двойственным.

    Снималось в: Франция
    Время просмотра: 01: 21: 47
    Перевод текста 1: Профессиональный (двухголосый закадровый) студия Elrom
    Перевод текста 2: Любительский (многоголосый закадровый)
    Перевод текста 3: Любительский (одноголосый закадровый) viare netvkino
    Оригинальная аудиодорожка: французский
    Файл
    Кодек для видео: MPEG-4
    Качество фильма: BDRemux 1080p
    Информация о видео: MPEG-4 AVC/19330 kbps/1920x1080/24 fps/16: 9/High Profile 4.1
    Информация о звуке 1: AC3/2.0/48 kHz/192 kbps/16 bits |DVO|
    Информация о звуке 2: AC3/2.0/48 kHz/192 kbps/16 bits |MVO|
    Информация о звуке 3: AC3/2.0/48 kHz/192 kbps/16 bits |VO|
    Информация о звуке 4: DTS-HD Master Audio Французский/5.1/48 kHz/3430 kbps/24 bits (DTS Core: 5.1/48 kHz/1510 kbps/24 bits) |original|
    Субтитры: русские (автор - Kenny K.), английские
    Скриншоты

    MediaInfo
    Общее
    Уникальный идентификатор : 198829598253010356769790028354279904540 (0x9595300DCD3582179A588BDAB73B151C)
    Полное имя : F: HDСорванец.2011.Blu-Ray.Remux.(1080p).mkv
    Формат : Matroska
    Версия формата : Version 2
    Размер файла : 13, 3 Гбайт
    Продолжительность : 1 ч. 21 м.
    Режим общего битрейта : Переменный
    Общий поток : 23, 3 Мбит/сек
    Дата кодирования : UTC 2012-10-31 05: 38: 54
    Программа кодирования : mkvmerge v5.8.0 (;No Sleep/Pillow;) built on Sep 2 2012 15: 37: 04
    Библиотека кодирования : libebml v1.2.3 + libmatroska v1.3.0
    Видео
    Идентификатор : 1
    Формат : AVC
    Формат/Информация : Advanced Video Codec
    Профиль формата : High@L4.1
    Параметр CABAC формата : Да
    Параметр ReFrames формата : 2 кадра
    Режим смешивания : Container profile=Unknown@0.0
    Идентификатор кодека : V_MPEG4/ISO/AVC
    Продолжительность : 1 ч. 21 м.
    Вид битрейта : Переменный
    Максимальный битрейт : 25, 1 Мбит/сек
    Ширина : 1920 пикселей
    Высота : 1080 пикселей
    Соотношение сторон : 16: 9
    Режим частоты кадров : Постоянный
    Частота кадров : 24, 000 кадра/сек
    Цветовое пространство : YUV
    Субдискретизация насыщенности : 4: 2: 0
    Битовая глубина : 8 бит
    Тип развёртки : Прогрессивная
    Default : Да
    Forced : Нет
    Аудио #1
    Идентификатор : 2
    Формат : AC-3
    Формат/Информация : Audio Coding 3
    Расширение режима : CM (complete main)
    Параметр Endianness формата : Big
    Идентификатор кодека : A_AC3
    Продолжительность : 1 ч. 21 м.
    Вид битрейта : Постоянный
    Битрейт : 192 Кбит/сек
    Каналы : 2 канала
    Расположение каналов : Front: L R
    Частота : 48, 0 КГц
    Битовая глубина : 16 бит
    Метод сжатия : С потерями
    Размер потока : 112 Мбайт (1%)
    Заголовок : студия Elrom
    Язык : Russian
    Default : Да
    Forced : Нет
    Аудио #2
    Идентификатор : 3
    Формат : AC-3
    Формат/Информация : Audio Coding 3
    Расширение режима : CM (complete main)
    Параметр Endianness формата : Big
    Идентификатор кодека : A_AC3
    Продолжительность : 1 ч. 21 м.
    Вид битрейта : Постоянный
    Битрейт : 192 Кбит/сек
    Каналы : 2 канала
    Расположение каналов : Front: L R
    Частота : 48, 0 КГц
    Битовая глубина : 16 бит
    Метод сжатия : С потерями
    Размер потока : 112 Мбайт (1%)
    Заголовок : Любительский многоголосый
    Язык : Russian
    Default : Нет
    Forced : Нет
    Аудио #3
    Идентификатор : 4
    Формат : AC-3
    Формат/Информация : Audio Coding 3
    Расширение режима : CM (complete main)
    Параметр Endianness формата : Big
    Идентификатор кодека : A_AC3
    Продолжительность : 1 ч. 21 м.
    Вид битрейта : Постоянный
    Битрейт : 192 Кбит/сек
    Каналы : 2 канала
    Расположение каналов : Front: L R
    Частота : 48, 0 КГц
    Битовая глубина : 16 бит
    Метод сжатия : С потерями
    Размер потока : 112 Мбайт (1%)
    Заголовок : viare netvkino
    Язык : Russian
    Default : Нет
    Forced : Нет
    Аудио #4
    Идентификатор : 5
    Формат : DTS
    Формат/Информация : Digital Theater Systems
    Профиль формата : MA/Core
    Режим : 16
    Параметр Endianness формата : Big
    Идентификатор кодека : A_DTS
    Продолжительность : 1 ч. 21 м.
    Вид битрейта : Переменный
    Битрейт : Неизвестно/1509 Кбит/сек
    Каналы : 6 каналов
    Расположение каналов : Front: L C R, Side: L R, LFE
    Частота : 48, 0 КГц
    Битовая глубина : 24 бит
    Метод сжатия : Без потерь/Lossy
    Язык : French
    Default : Нет
    Forced : Нет
    Текст #1
    Идентификатор : 6
    Формат : UTF-8
    Идентификатор кодека : S_TEXT/UTF8
    Идентификатор кодека/Информация : UTF-8 Plain Text
    Заголовок : Kenny K.
    Язык : Russian
    Default : Нет
    Forced : Нет
    Текст #2
    Идентификатор : 7
    Формат : UTF-8
    Идентификатор кодека : S_TEXT/UTF8
    Идентификатор кодека/Информация : UTF-8 Plain Text
    Язык : English
    Default : Нет
    Forced : Нет
    Меню
    00: 00: 00.000 : : Chapter 01
    00: 08: 14.291 : : Chapter 02
    00: 16: 20.666 : : Chapter 03
    00: 24: 19.208 : : Chapter 04
    00: 32: 15.000 : : Chapter 05
    00: 41: 14.458 : : Chapter 06
    00: 49: 22.500 : : Chapter 07
    00: 56: 46.916 : : Chapter 08
    01: 02: 56.833 : : Chapter 09
    01: 11: 04.750 : : Chapter 10
    01: 19: 28.500 : : Chapter 11
    01: 21: 45.000 : : Chapter 12

    Размер скачиваемого торрента: 13.33 GB (14315433575 Bytes)

    Сорванец/Tomboy (2011) BDRemux 1080p | P2, L, L1
    загрузка...
    Рейтинг →
     (голосов: 1, оценка 5/5, голосовать можно 1 раз )

    Другие торренты по теме:

  • Первый ребенок страны / Сорванец / First Kid (1996) DVD5 от New-Team | P, 2xA


    • Комментарии (0):

      Информация

      Информация

        Посетители, находящиеся в группе Гости, не могут оставлять комментарии в данной новости.

        ↓ Меню



        ↓ Опрос

        А Вы добавили сайт в закладки?
        Да
        Не


        Top 10 за месяц (Фильмы)