.
Авторизация | Регистрация
Хочешь лучшие торренты? Добавь свой email!
Добавить
» » Молодые американцы / The young americans (1993) DVDRip от Leon-masl | P скачать торрент бесплатно




    Молодые американцы / The young americans (1993) DVDRip от Leon-masl | P скачать торрент бесплатно

    Опубликовал: Админ | Дата: 12-08-2015, 05:01 | Просмотров: 156



    Детально о кино
    Русское название: Молодые американцы
    Русское название в мировом прокате: The young americans
    Создали в: 1993
    Категория жанра: Триллер, Драма, Криминал
    Главный режиссер: Дэнни Кэннон/Danny Cannon

    Актеры
    Харви Кейтель, Йейн Глен, Джон Вуд, Крэйг Келли, Вигго Мортенсен, Теренс Ригби, Кит Аллен, Тэнди Ньютон, Дэйв Даффи, Джеффри МакГиверн

    Сюжет фильма

    Лондонская полиция давно и упорно борется с организованной преступностью. Но по-прежнему развивается рынок торговли наркотиками и одно за другим происходят уличные преступления. За всем этим беспределом стоят молодежные банды. Лидер одной из таких группировок, американец по происхождению, известен тем, что нанимает для самых грязных преступлений молодых ребят. Он обещает им хорошую жизнь, много денег и романтику больших дорог. Многие соглашаются с ним работать, но, как только кто-то становится ненужным, его жестоко и безжалостно убивают. В Скотланд-Ярде создана специальная группа для расследования этих убийств, но любые меры английской полиции оказываются безрезультатными. На помощь британским коллегам из-за океана прибывает крупный специалист по борьбе с наркомафией и организованной преступностью, американец Джон Харрис. Он уверен, что для успешной операции необходимо внедрить в банду своего человека. Для этого он вербует одного из юнцов по имени Крис...

    Снималось в: Великобритания, Франция
    Время просмотра: 01: 39: 18
    Перевод текста: Профессиональный (многоголосный, закадровый)
    Файл
    Кодек для видео: XviD
    Качество фильма: DVDRip
    Информация о видео: 720x304, 25.000 fps, 1714 kbps
    Информация о звуке: 48.0 kHz, AC3, 6 ch, 384.00 kbps
    MI
    Общее
    Полное имя : Molodie.Ameriekancy.1993.DVDRip.avi
    Формат : AVI
    Формат/Информация : Audio Video Interleave
    Размер файла : 1, 46 Гбайт
    Продолжительность : 1 ч. 39 м.
    Общий поток : 2108 Кбит/сек
    Программа кодирования : VirtualDubMod 1.5.10.3 | www.virtualdub-fr.org || (build 2550/release)
    Библиотека кодирования : VirtualDubMod build 2550/release
    Видео
    Идентификатор : 0
    Формат : MPEG-4 Visual
    Профиль формата : Advanced Simple@L5
    Параметр BVOP формата : 1
    Параметр QPel формата : Нет
    Параметр GMC формата : Без точки перехода
    Параметр матрицы формата : Выборочная
    Идентификатор кодека : XVID
    Идентификатор кодека/Подсказка : XviD
    Продолжительность : 1 ч. 39 м.
    Битрейт : 1714 Кбит/сек
    Ширина : 720 пикс.
    Высота : 304 пикс.
    Соотношение сторон : 2, 35: 1
    Частота кадров : 25, 000 кадр/сек
    Цветовое пространство : YUV
    Подвыборка цветности : 4: 2: 0
    Битовая глубина : 8 бит
    Тип развёртки : Прогрессивная
    Метод сжатия : С потерями
    Бит/(Пиксели*Кадры) : 0.313
    Размер потока : 1, 19 Гбайт (81%)
    Библиотека кодирования : XviD 73
    Аудио
    Идентификатор : 1
    Формат : AC-3
    Формат/Информация : Audio Coding 3
    Расширение режима : CM (complete main)
    Идентификатор кодека : 2000
    Продолжительность : 1 ч. 39 м.
    Вид битрейта : Постоянный
    Битрейт : 384 Кбит/сек
    Канал(ы) : 6 канала(ов)
    Расположение каналов : Front: L C R, Side: L R, LFE
    Частота : 48, 0 КГц
    Битовая глубина : 16 бит
    Метод сжатия : С потерями
    Размер потока : 273 Мбайт (18%)
    Выравнивание : Разделение по промежуткам
    Продолжительность промежутка : 40 мс. (1, 00 видеокадр)
    Время предзагрузки промежутка : 500 ms
    Скриншоты

    Релиз подготовил: Leon-masl
    Залил: leon-masl

    Онлайн видео Молодые американцы


    Размер скачиваемого торрента: 1.46 GB (1569863680 Bytes)

    Молодые американцы/The young americans (1993) DVDRip от Leon-masl | P
    загрузка...
    Рейтинг →
     (голосов: 1, оценка 3/5, голосовать можно 1 раз )

    Другие торренты по теме:

  • Молодые Американцы / Young Americans (2000) TVRip
  • Молодые американцы / The young americans (1993) HDRip от Sem-te | P
  • Молодые американцы / The young americans (1993) HDRip от Sem-te | P


    • Комментарии (0):

      Информация

      Информация

        Посетители, находящиеся в группе Гости, не могут оставлять комментарии в данной новости.

        ↓ Меню



        ↓ Опрос

        А Вы добавили сайт в закладки?
        Да
        Не


        Top 10 за месяц (Фильмы)