.
Авторизация | Регистрация
Хочешь лучшие торренты? Добавь свой email!
Добавить
» » Кето и Котэ (1948) DVDRip от New-Team скачать торрент бесплатно




    Кето и Котэ (1948) DVDRip от New-Team скачать торрент бесплатно

    Опубликовал: Админ | Дата: 6-08-2015, 05:01 | Просмотров: 190



    Снималось в: СССР
    Создали в: Тбилисская киностудия
    Категория жанра: мелодрама, комедия, музыка
    Создали в: 1948
    Время просмотра: 01: 24: 56
    Перевод текста: Не требуется
    Субтитры подготовлены: нет
    Оригинальная аудиодорожка: русский
    Главный режиссер: Вахтанг Таблиашвили, Шалва Гедеванишвили

    Актеры

    Медея Джапаридзе, Бату Кравеишвили, Петре Амиранишвили, Шалва Гамбашидзе, Тамара Чавчавадзе, Мери Давиташвили, Васо Годзиашвили, Георгий Шавгулидзе, Елизавета Черкезишвили, Тамара Цицишвили, Александр Жоржолиани, Акакий Кванталиани, Верико Анджапаридзе, Сесилия Такаишвили, Цецилия Цуцунава, Зура Лежава, Георгий Геловани...
    Полный список актёров
    Описание:
    По мотивам классической грузинской пьесы Авксентия Цагарели Ханума. Богатый тифлисский купец мечтает породниться с аристократией и собирается для этого выдать свою дочь за старого разорившегося князя. Девушка в отчаянии - она любит молодого поэта, племянника князя. С помощью друзей и свахи Ханумы молодым влюбленным удается перехитрить стариков и добиться своего счастья...



    Источник: DVD5 R5
    Качество фильма видео: DVDRip
    Тип видео видео: AVI
    Информация о видео: 688x512 (4: 3), 25 fps, XviD ~ 1635 kbps avg, 0.186 bit/pixel
    Информация о звуке: 48 kHz, Dolby Digital AC3 2.0, 192 kbps
    Раздача от:
    MediaInfo

    Общее
    Полное имя : E: Tracker2015Кето и КотэKeto.i.Kote.1948.DVDRip_New-team_by_AVP_Studio.avi
    Формат : AVI
    Формат/Информация : Audio Video Interleave
    Размер файла : 1, 09 Гбайт
    Продолжительность : 1 ч. 24 м.
    Общий поток : 1837 Кбит/сек
    Программа кодирования : VirtualDubMod 1.5.10.3 | www.virtualdub-fr.org || (build 2550/release)
    Библиотека кодирования : VirtualDubMod build 2550/release
    Видео
    Идентификатор : 0
    Формат : MPEG-4 Visual
    Профиль формата : Advanced Simple@L5
    Параметр BVOP формата : 1
    Параметр QPel формата : Нет
    Параметр GMC формата : Без точки перехода
    Параметр матрицы формата : Выборочная
    Идентификатор кодека : XVID
    Идентификатор кодека/Подсказка : XviD
    Продолжительность : 1 ч. 24 м.
    Битрейт : 1635 Кбит/сек
    Ширина : 688 пикселей
    Высота : 512 пикселей
    Соотношение сторон : 4: 3
    Частота кадров : 25, 000 кадров/сек
    Цветовое пространство : YUV
    Субдискретизация насыщенности : 4: 2: 0
    Битовая глубина : 8 бит
    Тип развёртки : Прогрессивная
    Метод сжатия : С потерями
    Бит/(Пиксели*Кадры) : 0.186
    Размер потока : 993 Мбайт (89%)
    Библиотека кодирования : XviD 73
    Аудио
    Идентификатор : 1
    Формат : AC-3
    Формат/Информация : Audio Coding 3
    Расширение режима : CM (complete main)
    Параметр Endianness формата : Big
    Идентификатор кодека : 2000
    Продолжительность : 1 ч. 24 м.
    Вид битрейта : Постоянный
    Битрейт : 192 Кбит/сек
    Каналы : 2 канала
    Расположение каналов : Front: L R
    Частота : 48, 0 КГц
    Метод сжатия : С потерями
    Размер потока : 117 Мбайт (10%)
    Выравнивание : Разделение по промежуткам
    Продолжительность промежутка : 40 мс. (1, 00 видеокадр)
    Время предзагрузки промежутка : 500 мс

    Скриншоты



    Залил: AVPStudio

    Онлайн видео Кето и Котэ (1948) DVDRip от New


    Размер скачиваемого торрента: 1.09 GB (1170065408 Bytes)

    Кето и Котэ (1948) DVDRip от New-Team
    загрузка...
    Рейтинг →
     (голосов: 1, оценка 4/5, голосовать можно 1 раз )

    Другие торренты по теме:

  • Кето и Котэ / 1948 / РУ / DVDRip


    • Комментарии (0):

      Информация

      Информация

        Посетители, находящиеся в группе Гости, не могут оставлять комментарии в данной новости.

        ↓ Меню



        ↓ Опрос

        А Вы добавили сайт в закладки?
        Да
        Не


        Top 10 за месяц (Фильмы)