.
Авторизация | Регистрация
Хочешь лучшие торренты? Добавь свой email!
Добавить
» » Третий удар (1948) DVDRip от New-Team скачать торрент бесплатно




    Третий удар (1948) DVDRip от New-Team скачать торрент бесплатно

    Опубликовал: Админ | Дата: 4-08-2015, 16:56 | Просмотров: 149



    Снималось в: СССР
    Создали в: Киевская киностудия
    Категория жанра: военный
    Создали в: 1948
    Время просмотра: 01: 46: 12
    Перевод текста: Не требуется
    Субтитры подготовлены: нет
    Оригинальная аудиодорожка: русский
    Главный режиссер: Игорь Савченко

    Актеры

    Алексей Дикий, Николай Боголюбов, Юрий Шумский, Виктор Станицын, Владимир Головин, Михаил Романов, Иван Переверзев, Сергей Блинников, Марк Бернес, Николай Пишванов...
    Описание:
    1944 год. Начинается операция по освобождению Крыма под командованием генерала Толбухина. Гитлеровцы не в силах сдержать наступление наших войск и стратегический план Третьего удара выполнен: на вершине Сапун-горы водружен красный стяг, освобожден Севастополь, а враги сброшены в Черное море...



    Источник: DVD5 R5
    Качество фильма видео: DVDRip
    Тип видео видео: AVI
    Информация о видео: 688x512 (4: 3), 25 fps, XviD ~ 1765 kbps avg, 0.200 bit/pixel
    Информация о звуке: 48 kHz, Dolby Digital AC3 2.0, 192 kbps
    Раздача от:
    MediaInfo

    Общее
    Полное имя : Tretiy.udar.1948.DVDRip_New-team_by_AVP_Studio.avi
    Формат : AVI
    Формат/Информация : Audio Video Interleave
    Размер файла : 1, 46 Гбайт
    Продолжительность : 1 ч. 46 м.
    Общий поток : 1967 Кбит/сек
    Программа кодирования : VirtualDubMod 1.5.10.3 | www.virtualdub-fr.org || (build 2550/release)
    Библиотека кодирования : VirtualDubMod build 2550/release
    Видео
    Идентификатор : 0
    Формат : MPEG-4 Visual
    Профиль формата : Advanced Simple@L5
    Параметр BVOP формата : 1
    Параметр QPel формата : Нет
    Параметр GMC формата : Без точки перехода
    Параметр матрицы формата : Выборочная
    Идентификатор кодека : XVID
    Идентификатор кодека/Подсказка : XviD
    Продолжительность : 1 ч. 46 м.
    Битрейт : 1765 Кбит/сек
    Ширина : 688 пикселей
    Высота : 512 пикселей
    Соотношение сторон : 4: 3
    Частота кадров : 25, 000 кадров/сек
    Цветовое пространство : YUV
    Субдискретизация насыщенности : 4: 2: 0
    Битовая глубина : 8 бит
    Тип развёртки : Прогрессивная
    Метод сжатия : С потерями
    Бит/(Пиксели*Кадры) : 0.200
    Размер потока : 1, 31 Гбайт (90%)
    Библиотека кодирования : XviD 73
    Аудио
    Идентификатор : 1
    Формат : AC-3
    Формат/Информация : Audio Coding 3
    Расширение режима : CM (complete main)
    Параметр Endianness формата : Big
    Идентификатор кодека : 2000
    Продолжительность : 1 ч. 46 м.
    Вид битрейта : Постоянный
    Битрейт : 192 Кбит/сек
    Каналы : 2 канала
    Расположение каналов : Front: L R
    Частота : 48, 0 КГц
    Метод сжатия : С потерями
    Размер потока : 146 Мбайт (10%)
    Выравнивание : Разделение по промежуткам
    Продолжительность промежутка : 40 мс. (1, 00 видеокадр)
    Время предзагрузки промежутка : 500 мс

    Скриншоты



    Залил: AVPStudio

    Онлайн видео Третий удар (1948) DVDRip от New


    Размер скачиваемого торрента: 1.46 GB (1566390272 Bytes)

    Третий удар (1948) DVDRip от New-Team
    загрузка...
    Рейтинг →
     (голосов: 1, оценка 5/5, голосовать можно 1 раз )

    Другие торренты по теме:

  • Третий лишний / Ted (2012) HDRip
  • Шрек Третий / Shrek the Third (2007) BDRip 1080p от Youtracker | 3D-Video
  • Тэнти - лишний! - Фильм третий / Tenchi Muyo Movie 3: Tenchi Forever! (1999) BDRip от FilmRus
  • Парамашиван / Третий глаз / Paramasivan (2006) SATRip от Files-x | P
  • Третий акт / The Magic of Belle Isle (2012) BDRip 720p | L
  • Тэнти - лишний! (фильм третий) / Tenchi Muyo Movie 3: Tenchi Forever! (1999) HDRip от Torrent-Xzona | L2
  • Unreal Tournament: Третий Рейх / The Third Reich (2002) PC | Repack от UnSlayeR
  • Третий Рим - Дискография (2007-2013) MP3


    • Комментарии (0):

      Информация

      Информация

        Посетители, находящиеся в группе Гости, не могут оставлять комментарии в данной новости.

        ↓ Меню



        ↓ Опрос

        А Вы добавили сайт в закладки?
        Да
        Не


        Top 10 за месяц (Фильмы)