.
Авторизация | Регистрация
Хочешь лучшие торренты? Добавь свой email!
Добавить
» » Боевой конь / War Horse (2011) BDRip 1080p | D скачать торрент бесплатно




    Боевой конь / War Horse (2011) BDRip 1080p | D скачать торрент бесплатно

    Опубликовал: Админ | Дата: 2-08-2015, 18:19 | Просмотров: 147



    Детально о кино
    Русское название: Боевой конь
    Русское название в мировом прокате: War Horse
    Создали в: 2011
    Категория жанра: драма, военный, история
    Главный режиссер: Стивен Спилбер

    Актеры
    Джереми Ирвин, Дэвид Тьюлис, Эмили Уотсон, Нильс Ареструп, Питер Муллан, Том Хиддлстон, Бенедикт Камбербэтч, Селин Бакенс, Тоби Кеббелл, Патрик Кеннеди

    Сюжет фильма

    История невероятной дружбы мальчика Альберта и коня Джоуи.
    Когда начинается Первая мировая, и Джоуи отправляют вместе с кавалерийским полком на поля сражений Франции, Альберт, несмотря на слишком юный для военной службы возраст, все равно уходит на фронт, чтобы найти и спасти друга.
    Снималось в: США
    Время просмотра: 02: 26: 39
    Перевод текста: Дублированный
    Файл
    Кодек для видео: AVC
    Качество фильма: BDRip
    Информация о видео: 1920х1080, 23, 976 кадр/сек, 10, 0 Мбит/сек
    Информация о звуке:
    Информация о звуке: Английская, 1536 Кбит/сек, 6 канала(ов), 48, 0 КГц
    Информация о звуке 2: Испанская, 1536 Кбит/сек, 6 канала(ов), 48, 0 КГц
    Информация о звуке 3: Русская, 640 Кбит/сек, 6 канала(ов), 48, 0 КГц
    Информация о звуке 3: Украиская, 640 Кбит/сек, 6 канала(ов), 48, 0 КГц
    Субтитры: Английские, Испанские, Португальские, Русские, Украинские, Литовские
    BDInfo:

    General
    ID : 0 (0x0)
    Complete name : H: War Horse (2011) Blu-ray DiscBDMVSTREAM0915.m2ts
    Format : BDAV
    Format/Info : Blu-ray Video
    File size : 18.3 GiB
    Duration : 2h 15mn
    Overall bit rate mode : Variable
    Overall bit rate : 19.3 Mbps
    Maximum Overall bit rate : 48.0 Mbps
    Video
    ID : 4113 (0x1011)
    Menu ID : 1 (0x1)
    Format : AVC
    Format/Info : Advanced Video Codec
    Format profile : Main@L4.1
    Format settings, CABAC : Yes
    Format settings, ReFrames : 3 frames
    Codec ID : 27
    Duration : 2h 15mn
    Bit rate mode : Variable
    Nominal bit rate : 10 000 Kbps
    Maximum bit rate : 30.0 Mbps
    Width : 1 920 pixels
    Height : 1 080 pixels
    Display aspect ratio : 16: 9
    Frame rate : 23.976 fps
    Color space : YUV
    Chroma subsampling : 4: 2: 0
    Bit depth : 8 bits
    Scan type : Progressive
    Bits/(Pixel*Frame) : 0.201
    Writing library : x264 core 115 r1936 7a9e08d
    Encoding settings : cabac=1/ref=1/deblock=1: -1: -1/analyse=0x1: 0/me=dia/subme=2/psy=1/psy_rd=0.00: 0.00/mixed_ref=0/me_range=16/chroma_me=1/trellis=0/8x8dct=0/cqm=0/deadzone=21, 11/fast_pskip=1/chroma_qp_offset=0/threads=6/sliced_threads=0/slices=4/nr=0/decimate=1/interlaced=0/bluray_compat=1/constrained_intra=0/bframes=3/b_pyramid=1/b_adapt=2/b_bias=0/direct=3/weightb=1/open_gop=1/weightp=1/keyint=24/keyint_min=2/scenecut=40/intra_refresh=0/rc_lookahead=24/rc=abr/mbtree=1/bitrate=10000/ratetol=1.0/qcomp=0.60/qpmin=0/qpmax=69/qpstep=4/vbv_maxrate=30000/vbv_bufsize=30000/nal_hrd=vbr/ip_ratio=1.40/aq=1: 1.00
    Color primaries : BT.709
    Transfer characteristics : BT.709
    Matrix coefficients : BT.709
    Audio #1
    ID : 4352 (0x1100)
    Menu ID : 1 (0x1)
    Format : DTS
    Format/Info : Digital Theater Systems
    Format profile : MA/Core
    Mode : 16
    Format settings, Endianness : Big
    Muxing mode : Stream extension
    Codec ID : 134
    Duration : 2h 15mn
    Bit rate mode : Variable
    Bit rate : Unknown/1 509 Kbps
    Channel(s) : 8 channels/6 channels
    Channel positions : Front: L C R, Side: L R, Back: L R, LFE/Front: L C R, Side: L R, LFE
    Sampling rate : 48.0 KHz
    Bit depth : 24 bits
    Compression mode : Lossless/Lossy
    Audio #2
    ID : 4353 (0x1101)
    Menu ID : 1 (0x1)
    Format : DTS
    Format/Info : Digital Theater Systems
    Mode : 16
    Format settings, Endianness : Big
    Codec ID : 130
    Duration : 2h 15mn
    Bit rate mode : Constant
    Bit rate : 1 509 Kbps
    Channel(s) : 6 channels
    Channel positions : Front: L C R, Side: L R, LFE
    Sampling rate : 48.0 KHz
    Bit depth : 24 bits
    Compression mode : Lossy
    Stream size : 1.43 GiB (8%)
    Audio #3
    ID : 4354 (0x1102)
    Menu ID : 1 (0x1)
    Format : AC-3
    Format/Info : Audio Coding 3
    Mode extension : CM (complete main)
    Format settings, Endianness : Big
    Codec ID : 129
    Duration : 2h 15mn
    Bit rate mode : Constant
    Bit rate : 640 Kbps
    Channel(s) : 6 channels
    Channel positions : Front: L C R, Side: L R, LFE
    Sampling rate : 48.0 KHz
    Bit depth : 16 bits
    Compression mode : Lossy
    Stream size : 621 MiB (3%)
    Audio #4
    ID : 4355 (0x1103)
    Menu ID : 1 (0x1)
    Format : AC-3
    Format/Info : Audio Coding 3
    Mode extension : CM (complete main)
    Format settings, Endianness : Big
    Codec ID : 129
    Duration : 2h 15mn
    Bit rate mode : Constant
    Bit rate : 640 Kbps
    Channel(s) : 6 channels
    Channel positions : Front: L C R, Side: L R, LFE
    Sampling rate : 48.0 KHz
    Bit depth : 16 bits
    Compression mode : Lossy
    Stream size : 621 MiB (3%)
    Text #1
    ID : 4608 (0x1200)
    Menu ID : 1 (0x1)
    Format : PGS
    Codec ID : 144
    Text #2
    ID : 4609 (0x1201)
    Menu ID : 1 (0x1)
    Format : PGS
    Codec ID : 144
    Delay relative to video : 2s 2ms
    Text #3
    ID : 4610 (0x1202)
    Menu ID : 1 (0x1)
    Format : PGS
    Codec ID : 144
    Text #4
    ID : 4611 (0x1203)
    Menu ID : 1 (0x1)
    Format : PGS
    Codec ID : 144
    Text #5
    ID : 4612 (0x1204)
    Menu ID : 1 (0x1)
    Format : PGS
    Codec ID : 144
    Text #6
    ID : 4613 (0x1205)
    Menu ID : 1 (0x1)
    Format : PGS
    Codec ID : 144
    Text #7
    ID : 4614 (0x1206)
    Menu ID : 1 (0x1)
    Format : PGS
    Codec ID : 144
    Text #8
    ID : 4615 (0x1207)
    Menu ID : 1 (0x1)
    Format : PGS
    Codec ID : 144
    Text #9
    ID : 4616 (0x1208)
    Menu ID : 1 (0x1)
    Format : PGS
    Codec ID : 144
    Text #10
    ID : 4617 (0x1209)
    Menu ID : 1 (0x1)
    Format : PGS
    Codec ID : 144
    Text #11
    ID : 4618 (0x120A)
    Menu ID : 1 (0x1)
    Format : PGS
    Codec ID : 144
    Text #12
    ID : 4619 (0x120B)
    Menu ID : 1 (0x1)
    Format : PGS
    Codec ID : 144

    Скриншоты

    Залил: turok_68

    Онлайн видео Боевой конь


    Размер скачиваемого торрента: 22.18 GB (23820425653 Bytes)

    Боевой конь/War Horse (2011) BDRip 1080p | D
    загрузка...
    Рейтинг →
     (голосов: 1, оценка 3/5, голосовать можно 1 раз )

    Другие торренты по теме:

  • Боевой конь / War Horse (2011) BDRip-AVC | iPad
  • Боевой конь / War Horse (2010) BDRip 1080p
  • Боевой конь / War Horse (2011) BDRip 720p от Leonardo and Scarabey | Лицензия
  • Боевой конь / War Horse (2011) HDRip от Scarabey


    • Комментарии (0):

      Информация

      Информация

        Посетители, находящиеся в группе Гости, не могут оставлять комментарии в данной новости.

        ↓ Меню



        ↓ Опрос

        А Вы добавили сайт в закладки?
        Да
        Не


        Top 10 за месяц (Фильмы)