.
Авторизация | Регистрация
Хочешь лучшие торренты? Добавь свой email!
Добавить
» » Гостья из будущего (1984) DVDRip от New-Team скачать торрент бесплатно




    Гостья из будущего (1984) DVDRip от New-Team скачать торрент бесплатно

    Опубликовал: Админ | Дата: 29-07-2015, 05:00 | Просмотров: 187



    Снималось в: СССР/Студия Горького, Гостелерадио
    Категория жанра: фантастика, триллер, драма, мелодрама, приключения, семейный
    Создали в: 1984
    Время просмотра: 01: 03: 30/серия
    Перевод текста: Не требуется
    Субтитры подготовлены: русские от RUSCICO, русские от Твиттера, английские
    Оригинальная аудиодорожка: русский
    Главный режиссер: Павел Арсенов

    Актеры
    Наталья Гусева, Алексей Фомкин, Илья Наумов, Вячеслав Невинный, Михаил Кононов, Марьяна (Марианна) Ионесян, Елена Метелкина, Евгений Герасимов, Владимир Носик, Юрий Григорьев, Игорь Ясулович, Георгий Бурков, Валентина Талызина, Мария Стерникова, Людмила Аринина, Татьяна Божок, Екатерина Васильева, Антон Суховерко, Семён Бузган, Алексей Муравьёв, Екатерина Авербах, Елена Коляскина, Мария Баукина, Наталья Шанаева, Вячеслав Баранов, Наталья Варлей, Андрей Градов, Елена Цыплакова, Борис Щербаков, Рубен Симонов
    Роли дублировали: Татьяна Дасковская, Михаил Кокшенов
    Описание: 13 апреля 1984 года, в пятницу, ученик 6-го Б класса 20-й московской школы Коля Герасимов, отправившись после уроков в магазин за кефиром, встречает на оживлённой улице друга и одноклассника Фиму Королёва, который, в свою очередь, увлекает его слежкой за таинственной незнакомкой. Выслеживая её, ребята забираются в старый заброшенный двухэтажный дом, но незнакомки там не оказывается. В подвале, в потайной комнате, вход в которую замаскирован под обычный шкаф и закрыт подвижной кирпичной стеной, Коля обнаруживает машину времени. Борьба с космическими пиратами, захватывающее путешествие во времени, знакомство с роботом Вертером, говорящим козлом и девочкой из будущего Алисой Селезневой - вот к чему привел Колю обычный поход за кефиром. Фильм поставлен по мотивам фантастического романа Кира Булычева Сто лет тому вперед.

    Качество фильма: DVDRip / 2 х DVD9 R5 - полная реставрация изображения и звука от RUSCICO.
    Тип видео: AVI
    Информация о видео: 720x544 (4: 3), 25.000 fps, XviD ~ 1800 kbps avg, 0.184 bit/pixel
    Информация о звуке: 48 kHz, Dolby AC3, 6 ch, 448 kbps
    Тип видео субтитров: SoftSub (srt)
    О релизе: Я бы скорее всего не взялся за эту работу, если бы на дисках не было русских субтитров, я даже включил в раздачу двое русских субтитров, от RUSCICO и от Твиттера . Наши издатели фильмов практически никогда не думают о глухих людях, поэтому те и смотрят в основном не наши фильмы. В данном случае большой респект издателю!!!
    Раздача от:
    MediaInfo

    General
    Format : AVI
    Format/Info : Audio Video Interleave
    File size : 1 022 MiB
    Duration : 1h 3mn
    Overall bit rate : 2 256 Kbps
    Writing application : VirtualDubMod 1.5.10.3 | www.virtualdub-fr.org || (build 2550/release)
    Writing library : VirtualDubMod build 2550/release
    Video
    ID : 0
    Format : MPEG-4 Visual
    Format profile : Advanced Simple@L5
    Format settings, BVOP : 1
    Format settings, QPel : No
    Format settings, GMC : No warppoints
    Format settings, Matrix : Custom
    Codec ID : XVID
    Codec ID/Hint : XviD
    Duration : 1h 3mn
    Bit rate : 1 798 Kbps
    Width : 720 pixels
    Height : 544 pixels
    Display aspect ratio : 4: 3
    Frame rate : 25.000 fps
    Color space : YUV
    Chroma subsampling : 4: 2: 0
    Bit depth : 8 bits
    Scan type : Progressive
    Compression mode : Lossy
    Bits/(Pixel*Frame) : 0.184
    Stream size : 815 MiB (80%)
    Writing library : XviD 73
    Audio
    ID : 1
    Format : AC-3
    Format/Info : Audio Coding 3
    Mode extension : CM (complete main)
    Format settings, Endianness : Big
    Codec ID : 2000
    Duration : 1h 3mn
    Bit rate mode : Constant
    Bit rate : 448 Kbps
    Channel(s) : 6 channels
    Channel positions : Front: L C R, Side: L R, LFE
    Sampling rate : 48.0 KHz
    Bit depth : 16 bits
    Compression mode : Lossy
    Stream size : 203 MiB (20%)
    Alignment : Split accross interleaves
    Interleave, duration : 40 ms (1.00 video frame)
    Interleave, preload duration : 500 ms

    Скриншоты:



    Сравнение

    http://rutor.org/torrent/86561/gostja-iz-buduwego-1984-dvdrip
    Видео: http://screenshotcomparison.com/comparison/136747это сравнение первых серий релизов. Особенного отличия нет, просто картинка у меня помягче и кое-где почётче. Но в том релизе нет никаких субтитров!

    Размер скачиваемого торрента: 5.00 GB (5367388588 Bytes)

    Гостья из будущего (1984) DVDRip от New-Team
    загрузка...
    Рейтинг →
     (голосов: 1, оценка 4/5, голосовать можно 1 раз )

    Другие торренты по теме:

  • Гостья из будущего (1984) DVDRip-AVC


    • Комментарии (0):

      Информация

      Информация

        Посетители, находящиеся в группе Гости, не могут оставлять комментарии в данной новости.

        ↓ Меню



        ↓ Опрос

        А Вы добавили сайт в закладки?
        Да
        Не


        Top 10 за месяц (Фильмы)