.
Авторизация | Регистрация
Хочешь лучшие торренты? Добавь свой email!
Добавить
» » Холм одного дерева / One Tree Hill (2008) WEB-DL 720p | НТВ скачать торрент бесплатно




    Холм одного дерева / One Tree Hill (2008) WEB-DL 720p | НТВ скачать торрент бесплатно

    Опубликовал: Админ | Дата: 26-07-2015, 05:00 | Просмотров: 173



    Информация о сериале
    Русское название: Холм одного дерева
    Русское название в мировом прокате: One Tree Hill
    Создали в: 2008
    Категория жанра: драма, спорт
    Автор идеи: Марк Шван/Mark Schwahn/
    Главный режиссеры: Грегори Прэндж/Gregory Prange/ , Пол Йоханссон/Paul Johansson/ , Марк Шван/Mark Schwahn/ и др.

    Актеры
    Чад Майкл Мюррэй/Chad Michael Murray/ , Джеймс Лэфферти/James Lafferty/ , Хилари Бертон/Hilarie Burton/ , Бетани Джои Ленц/Bethany Joy Lenz/ , Пол Йоханссон/Paul Johansson/ , София Буш/Sophia Bush/ , Ли Норрис/Lee Norris/ , Энтвон Тэннер/Antwon Tanner/ , Джексон Брандейдж/Jackson Brundage/ , Лиза Голдштейн/Lisa Goldstein/ и др.
    О сериале:
    Помимо любви к баскетболу, кажется, что у Лукаса и Нейтена, двух молодых людей, нет ничего общего. За исключением темной тайны, заключающейся в том, что у них один отец. Высокомерный и уверенный, Нейтен — звезда баскетбольной команды средней школы и принадлежит самой богатой семье в городе.
    Тихий и задумчивый, Лукас — единственный ребенок матери-одиночки. Он всегда держался на расстоянии от Нейтена. Но их жизни сталкиваются, когда Лукас попадает в команду Нейтена.

    Снималось в: США
    Студии: Tollin/Robbins Productions/Warner Bros. Television
    Время просмотра: 18 x ~ 00: 43: 00
    Перевод текста: Профессиональный (многоголосый, закадровый) -студия НТВ+ по заказу НТВ
    Файл
    Кодек для видео: H.264
    Качество фильма: WEB-DL 720p
    Информация о видео: 1280x720 at 23.976 fps, MPEG-4 AVC, ~4000 kbps avg
    Информация о звуке#1: Russian: 48 kHz, AC3, 2/0 (L, R) ch, ~192.00 kbps avg |Многоголосый закадровый, НТВ |
    Информация о звуке#2: English: 48 kHz, AC3, 3/2 (L, C, R, l, r) + LFE ch, ~384.00 kbps avg |Оригинал|
    Субтитры: none
    Скриншоты

    MediaInfo
    General
    Complete name : One.Tree.Hill.S05E01.4 Years, 6 Months, 2 Days.720p.WEB-DL.NTV.mkv
    Format : Matroska
    Format version : Version 2
    File size : 1.37 GiB
    Duration : 42mn 14s
    Overall bit rate : 4 645 Kbps
    Movie name : OTH S05E01 ;4 Years, 6 Months, 2 Days;
    Encoded date : UTC 2011-09-08 18: 12: 09
    Writing application : mkvmerge v4.9.1 (;Ich will;) сборка от Jul 11 2011 23: 53: 15
    Writing library : libebml v1.2.1 + libmatroska v1.1.1
    Video
    ID : 1
    Format : AVC
    Format/Info : Advanced Video Codec
    Format profile : High@L3.1
    Format settings, CABAC : No
    Format settings, ReFrames : 2 frames
    Codec ID : V_MPEG4/ISO/AVC
    Duration : 42mn 14s
    Bit rate : 3 977 Kbps
    Width : 1 280 pixels
    Height : 720 pixels
    Display aspect ratio : 16: 9
    Frame rate mode : Constant
    Frame rate : 23.976 fps
    Color space : YUV
    Chroma subsampling : 4: 2: 0
    Bit depth : 8 bits
    Scan type : Progressive
    Bits/(Pixel*Frame) : 0.180
    Stream size : 1.17 GiB (86%)
    Language : English
    Default : Yes
    Forced : No
    Color range : Limited
    Color primaries : BT.709
    Transfer characteristics : BT.709
    Matrix coefficients : BT.709
    Audio #1
    ID : 2
    Format : AC-3
    Format/Info : Audio Coding 3
    Mode extension : CM (complete main)
    Format settings, Endianness : Big
    Codec ID : A_AC3
    Duration : 42mn 14s
    Bit rate mode : Constant
    Bit rate : 192 Kbps
    Channel(s) : 2 channels
    Channel positions : Front: L R
    Sampling rate : 48.0 KHz
    Compression mode : Lossy
    Stream size : 58.0 MiB (4%)
    Title : НТВ+
    Language : Russian
    Default : Yes
    Forced : No
    Audio #2
    ID : 3
    Format : AC-3
    Format/Info : Audio Coding 3
    Mode extension : CM (complete main)
    Format settings, Endianness : Big
    Codec ID : A_AC3
    Duration : 42mn 14s
    Bit rate mode : Constant
    Bit rate : 384 Kbps
    Channel(s) : 6 channels
    Channel positions : Front: L C R, Side: L R, LFE
    Sampling rate : 48.0 KHz
    Compression mode : Lossy
    Stream size : 116 MiB (8%)
    Language : English
    Default : No
    Forced : No
    Список серий
    01. 4 Years, 6 Months, 2 Days/4 года, 6 месяцев и 2 дня спустя
    02. Racing Like a Pro/Настоящий профи
    03. My Way Home Is Through You/Трудный путь домой
    04. Its Alright Ma (I;m Only Bleeding)/Со мной всё в порядке, я всего лишь истекаю кровью
    05. I Forgot to Remember to Forget/Я забыл вспомнить о том, что нужно забыть
    06. Don;t Dream It;s Over/Не мечтай - всё кончено!
    07. In da Club/В клубе
    08. Please, Please, Please Let Me Get What I Want/Пожалуйста, прошу, молю - пусть всё будет по-моему
    09. For Tonight You;re Only Here to Know/Ты единственный, кто знает правду
    10. Running to Stand Still/Бег на одном месте
    11. You;re Gonna Need Someone on Your Side/Я на твоей стороне
    12. Hundred/Сотня
    13. Echoes, Silence, Patience and Grace/Отголоски тишины и терпеливое благородство
    14. What Do You Go Home To?/Зачем тебе дом?
    15. Life Is Short/Жизнь коротка
    16. Cryin; Won;t Help You Now/Слёзы теперь тебе не помогут
    17. Hate Is Safer Than Love/Ненависть безопасней любви
    18. What Comes After the Blues/Что бывает после грусти


    Онлайн видео Холм одного дерева


    Размер скачиваемого торрента: 24.52 GB (26329350626 Bytes)

    Холм одного дерева/One Tree Hill (2008) WEB-DL 720p | НТВ
    загрузка...
    Рейтинг →
     (голосов: 1, оценка 5/5, голосовать можно 1 раз )

    Другие торренты по теме:

  • Холм одного дерева / One Tree Hill (2003-2012) WEB-DLRip | P, L
  • Холм Одного Дерева / One Tree Hill (2004) WEB-DL 720p | HTB
  • Холм Одного Дерева / One Tree Hill (2003-2004) WEB-DL 720p | HTB
  • Холм одного дерева / One Tree Hill (2003-2012) WEB-DLRip | P | НТВ
  • Холм одного дерева / One Tree Hill (2003-2004) WEB-DL 720p | НТВ
  • Холм одного дерева / One Tree Hill (2004-2005) WEB-DL 720p | НТВ


    • Комментарии (0):

      Информация

      Информация

        Посетители, находящиеся в группе Гости, не могут оставлять комментарии в данной новости.

        ↓ Меню



        ↓ Опрос

        А Вы добавили сайт в закладки?
        Да
        Не


        Top 10 за месяц (Фильмы)