.
Авторизация | Регистрация
Хочешь лучшие торренты? Добавь свой email!
Добавить




Из машины / Ex Machina (2015) DVD5 скачать торрент бесплатно

Опубликовал: Админ | Дата: 22-07-2015, 05:01 | Просмотров: 237


To erase the line between man and machine is to obscure the line between men and gods

Создали в: 2015
Создали в: Великобритания/Universal Pictures, Film4, DNA Films
Категория жанра: Фантастика, триллер, драма
Главный режиссер: Алекс Гарленд
Продюсеры: Эндрю МакДональд, Аллон Рич, Эли Буш
Актеры: Донал Глисон, Алисия Викандер, Оскар Айзек, Соноя Мидзуно, Кори Джонсон, Клер Шелби, Симара А. Темплмен, Gana Bayarsaikhan, Тиффани Писани, Элина Алминас
Описание фильма:
В центре сюжета — молодой человек, которого нанимает миллиардер, сделавший состояние на высокотехнологичных разработках. Задача работника — провести неделю в удаленном местечке, тестируя женщину-робота с искусственным интеллектом.
Перевод текста: Дублированный
Язык субтитров: Английский, русский
Дата мировой премьеры: 21 января 2015
Время просмотра: 01: 43: 36
Качество фильма видео: DVD5
Информация о видео: MPEG-2, 720x576@1024x576 (PAL 16: 9), ~5200 Кбит/сек
Информация о звуке 1: AC3 5.1, 384 Кбит/сек Английский - оригинал
Информация о звуке 2: AC3 5.1, 448 Кбит/сек Русский - дублированный
DVDInfo:
Title: Ex Machina (2014) DVD5 PAL
Size: 4.38 Gb ( 4 594 504, 00 KBytes ) - DVD-5
Enabled regions: 1, 2, 3, 4, 5, 6, 7, 8
VTS_01 :
Play Length: 01: 43: 36
Video: PAL 16: 9 (720x576) VBR, Auto Letterboxed
Audio:
English (Dolby AC3, 6 ch)
Russian (Dolby AC3, 6 ch)
Subtitles:
English
Russian
* Menus Information *
VIDEO_TS Menu
Video:
PAL 16: 9 (720x576) VBR
Auto PanScan
English Language Unit :
Title Menu
VTS_01 Menu
Video:
PAL 16: 9 (720x576) VBR
Auto Letterboxed
English Language Unit :
Root Menu
Subpicture Menu
Audio Menu
Angle menu
Chapter (PTT) Menu
MediaInfo:
Общее
Полное имя : G: ВидеоEx Machina (2014) DVD5 PALVIDEO_TSVTS_01_4.VOB
Формат : MPEG-PS
Размер файла : 1024 Мбайт
Продолжительность : 23 м.
Режим общего битрейта : Переменный
Общий поток : 6183 Кбит/сек
Видео
Идентификатор : 224 (0xE0)
Формат : MPEG Video
Версия формата : Version 2
Профиль формата : Main@Main
Параметр BVOP формата : Да
Параметр матрицы формата : Выборочная
Параметр GOP формата : M=3, N=12
Структура изображения : Frame
Продолжительность : 23 м.
Вид битрейта : Переменный
Битрейт : 5228 Кбит/сек
Максимальный битрейт : 7076 Кбит/сек
Ширина : 720 пикселей
Высота : 576 пикселей
Соотношение сторон : 16: 9
Частота кадров : 25, 000 кадров/сек
Стандарт вещания : PAL
Цветовое пространство : YUV
Субдискретизация насыщенности : 4: 2: 0
Битовая глубина : 8 бит
Тип развёртки : Чересстрочная
Порядок развёртки : Верхнее поле первое
Метод сжатия : С потерями
Бит/(Пиксели*Кадры) : 0.504
Временной код первого кадра : 01: 10: 01: 21
Оригинал временного кода : Group of pictures t_head
GOP, открыто/закрыто : Открыто
Размер потока : 866 Мбайт (85%)
Аудио #1
Идентификатор : 189 (0xBD)-128 (0x80)
Формат : AC-3
Формат/Информация : Audio Coding 3
Расширение режима : CM (complete main)
Параметр Endianness формата : Big
Режим смешивания : DVD-Video
Продолжительность : 23 м.
Вид битрейта : Постоянный
Битрейт : 384 Кбит/сек
Каналы : 6 каналов
Расположение каналов : Front: L C R, Side: L R, LFE
Частота : 48, 0 КГц
Битовая глубина : 16 бит
Метод сжатия : С потерями
Задержка видео : -640 мс.
Размер потока : 63, 6 Мбайт (6%)
Аудио #2
Идентификатор : 189 (0xBD)-129 (0x81)
Формат : AC-3
Формат/Информация : Audio Coding 3
Расширение режима : CM (complete main)
Параметр Endianness формата : Big
Режим смешивания : DVD-Video
Продолжительность : 23 м.
Вид битрейта : Постоянный
Битрейт : 448 Кбит/сек
Каналы : 6 каналов
Расположение каналов : Front: L C R, Side: L R, LFE
Частота : 48, 0 КГц
Битовая глубина : 16 бит
Метод сжатия : С потерями
Задержка видео : -672 мс.
Размер потока : 74, 2 Мбайт (7%)
Текст #1
Идентификатор : 189 (0xBD)-32 (0x20)
Формат : RLE
Формат/Информация : Run-length encoding
Режим смешивания : DVD-Video
Задержка видео : 480 мс.
Текст #2
Идентификатор : 189 (0xBD)-33 (0x21)
Формат : RLE
Формат/Информация : Run-length encoding
Режим смешивания : DVD-Video
Задержка видео : 200 мс.
Меню
Доп. информация:
Исходник: Из машины/Ex Machina (2015) DVD9 | Custom
Удалены: трейлеры.
Команды диска переписаны заново, оставлен один VTS.
Видео сжато на 24, 4%.
Использовались программы: DVD ReMake Pro + DVD Rebuilder + CCE SP2 7 проходов + Работа с меню (Adobe PhotoShop и MuxMan).
Внимание! Если вы собираетесь записывать этот DVD, то записываете программой ImgBurnна DVD- R/RW.
Скриншоты меню:

Скриншоты:

Залил: Саша 1992

Онлайн видео Из машины


Размер скачиваемого торрента: 4.38 GB (4704772096 Bytes)

Из машины/Ex Machina (2015) DVD5
загрузка...
Рейтинг →
 (голосов: 1, оценка 4/5, голосовать можно 1 раз )

Другие торренты по теме:

  • Ex Machina / Из машины (2015) HDRip
  • Из машины / Ex Machina (2015) HDRip | Лицензия
  • Из машины / Ex Machina (2015) BDRip 1080p | Лицензия
  • Из машины / Ex Machina (2015) BDRip 1080p | D, A
  • Из Машины / Ex Machina (2015) BDRip 720p | Дополнительные материалы
  • Из машины / Ex Machina (2015) BDRip-AVC | Лицензия
  • Из машины / Ex Machina (2015) HDRip от -=HD-NET=- | КПК | Лицензия
  • Из машины / Ex Machina (2015) BDRip 720p от HELLYWOOD | Лицензия


    • Комментарии (0):

      Информация

      Информация

        Посетители, находящиеся в группе Гости, не могут оставлять комментарии в данной новости.

        ↓ Меню



        ↓ Опрос

        А Вы добавили сайт в закладки?
        Да
        Не


        Top 10 за месяц (Фильмы)