.
Авторизация | Регистрация
Хочешь лучшие торренты? Добавь свой email!
Добавить
» » Безумная / I, madman (1989) BDRip-AVC | P скачать торрент бесплатно




    Безумная / I, madman (1989) BDRip-AVC | P скачать торрент бесплатно

    Опубликовал: Админ | Дата: 16-07-2015, 05:01 | Просмотров: 168




    Детально о кино
    Русское название: Безумная (Я - безумец/Я - сумасшедший/Попасть в переплет/)
    Русское название в мировом прокате: I, madman
    Создали в: 1989
    Категория жанра: Триллер, ужасы
    Главный режиссер: Тибор Такач

    Актеры
    Дженни Райт, Клэйтон Ронер, Рэндолл Уильям Кук, Стефани Ходж, Мишель Джордан, Вэнс Валенсия, Мэри Болдуин, Раф Назарио, Боб Фрэнк, Брюс Уэгнер

    Сюжет фильма

    Молодая женщина Вирджиния захвачена чтением романа ужасов. В мыслях она отождествляет себя с героиней книги, которую преследует сгорающий от страсти маньяк. Литературный монстр неожиданно прорывается в реальный мир, совершая убийства, ранее описанные на страницах романа. И главная его цель — Вирджиния

    Снималось в: США
    Киностудия: Sarliu/Diamant
    Время просмотра: 01: 29: 14
    Перевод текста: Профессиональный многоголосый закадровый
    Файл
    Кодек для видео: MPEG-4 AVC
    Качество фильма: BDRip-AVC
    Информация о видео: ~2500 Кбит/с, 1004x544
    Информация о звуке: AC3, 2 ch, 192 Кбит/с
    Субтитры: Нет

    M/I
    General
    Unique ID : 106788510240639972788430505187951526433 (0x5056B80DB0ADD76B818370CA68204221)
    Complete name : D: Безумная.1989.BDRIP_AVC.-=DoMiNo=-.mkv
    Format : Matroska
    Format version : Version 4/Version 2
    File size : 1.72 GiB
    Duration : 1h 29mn
    Overall bit rate : 2 756 Kbps
    Writing application : XviD4PSP 7.0.122
    Writing library : Lavf56.15.102
    Video
    ID : 1
    Format : AVC
    Format/Info : Advanced Video Codec
    Format profile : High@L4.1
    Format settings, CABAC : Yes
    Format settings, ReFrames : 10 frames
    Codec ID : V_MPEG4/ISO/AVC
    Duration : 1h 29mn
    Bit rate : 2 509 Kbps
    Width : 1 004 pixels
    Height : 544 pixels
    Display aspect ratio : 1.85: 1
    Frame rate mode : Constant
    Frame rate : 23.976 fps
    Color space : YUV
    Chroma subsampling : 4: 2: 0
    Bit depth : 8 bits
    Scan type : Progressive
    Bits/(Pixel*Frame) : 0.192
    Stream size : 1.56 GiB (91%)
    Writing library : x264 core 146 r2538M 121396c
    Encoding settings : cabac=1/ref=10/deblock=1: -1: -1/analyse=0x3: 0x133/me=umh/subme=10/psy=1/psy_rd=1, 00: 0, 10/mixed_ref=1/me_range=24/chroma_me=1/trellis=2/8x8dct=1/cqm=0/deadzone=21, 11/fast_pskip=0/chroma_qp_offset=-3/threads=12/lookahead_threads=2/sliced_threads=0/nr=0/decimate=1/interlaced=0/bluray_compat=0/constrained_intra=0/bframes=9/b_pyramid=2/b_adapt=2/b_bias=0/direct=1/weightb=1/open_gop=0/weightp=2/keyint=230/keyint_min=23/scenecut=40/intra_refresh=0/rc=crf/mbtree=0/crf=20, 0/qcomp=0, 60/qpmin=20/qpmax=69/qpstep=4/ip_ratio=1, 40/pb_ratio=1, 30/aq=1: 1, 00
    Default : Yes
    Forced : No
    Audio
    ID : 2
    Format : AC-3
    Format/Info : Audio Coding 3
    Mode extension : CM (complete main)
    Format settings, Endianness : Big
    Codec ID : A_AC3
    Duration : 1h 29mn
    Bit rate mode : Constant
    Bit rate : 192 Kbps
    Channel(s) : 2 channels
    Channel positions : Front: L R
    Sampling rate : 48.0 KHz
    Bit depth : 32 bits
    Compression mode : Lossy
    Stream size : 123 MiB (7%)
    Language : Russian
    Default : Yes
    Forced : No
    Menu
    00: 00: 00.000 : : Chapter 1
    00: 05: 00.000 : : Chapter 2
    00: 10: 00.000 : : Chapter 3
    00: 15: 00.000 : : Chapter 4
    00: 20: 00.000 : : Chapter 5
    00: 25: 00.000 : : Chapter 6
    00: 30: 00.000 : : Chapter 7
    00: 35: 00.000 : : Chapter 8
    00: 40: 00.000 : : Chapter 9
    00: 45: 00.000 : : Chapter 10
    00: 50: 00.000 : : Chapter 11
    00: 55: 00.000 : : Chapter 12
    01: 00: 00.000 : : Chapter 13
    01: 05: 00.000 : : Chapter 14
    01: 10: 00.000 : : Chapter 15
    01: 15: 00.000 : : Chapter 16
    01: 20: 00.000 : : Chapter 17
    01: 25: 00.000 : : Chapter 18


    Онлайн видео Безумная


    Размер скачиваемого торрента: 1.72 GB (1844436358 Bytes)

    Безумная/I, madman (1989) BDRip-AVC | P
    загрузка...
    Рейтинг →
     (голосов: 1, оценка 5/5, голосовать можно 1 раз )

    Другие торренты по теме:

  • Безумная парочка / Mad Buddies (2012) DVDRip | P
  • Безумная земля / Adama Meshugaat (2006) DVDRip от ClubTorrent
  • Безумная / I, madman (1989) HDTVRip-AVC | P, P2, A, L1
  • Сумасшедшая и красивый / Безумная и прекрасная / Crazy Beautiful / Crazy / Beautiful (2001) HDRip от Scarabey
  • Безумная свадьба / Quest-ce quon a fait au Bon Dieu (2014) HDRip | Чистый звук скачать через торрент бесплатно
  • Безумная свадьба / Quest-ce quon a fait au Bon Dieu
  • Цвет волшебства. Безумная звезда скачать через торрент бесплатно
  • Безумная свадьба / Quest-ce quon a fait au Bon Dieu (2014) BDRip 720p | Лицензия


    • Комментарии (0):

      Информация

      Информация

        Посетители, находящиеся в группе Гости, не могут оставлять комментарии в данной новости.

        ↓ Меню



        ↓ Опрос

        А Вы добавили сайт в закладки?
        Да
        Не


        Top 10 за месяц (Фильмы)