.
Авторизация | Регистрация
Хочешь лучшие торренты? Добавь свой email!
Добавить
» » Сельская учительница (1947) DVDRip от New-Team скачать торрент бесплатно




    Сельская учительница (1947) DVDRip от New-Team скачать торрент бесплатно

    Опубликовал: Админ | Дата: 13-07-2015, 05:01 | Просмотров: 179



    Снималось в: СССР
    Создали в: Союздетфильм
    Категория жанра: драма
    Создали в: 1947
    Время просмотра: 01: 38: 16
    Перевод текста: Не требуется
    Субтитры подготовлены: нет
    Оригинальная аудиодорожка: русский
    Главный режиссер: Марк Донской

    Актеры

    Вера Марецкая, Даниил Сагал, Владимир Белокуров, Владимир Марута, Ростислав Плятт, Павел Оленев, Дмитрий Павлов, Анна Лисянская, Борис Рунге, Алексей Консовский, Надир Малишевский, Толя Ганичев, Александр Суснин, Федор Одиноков...
    Описание:
    Канун Первой мировой войны. Окончив гимназию в Петербурге, Варя едет учить крестьянских детей. Сурово встречает юную учительницу глухая деревня. Вскоре появляется отбывающий в Сибири знакомый Вари по Петербургу — большевик Мартынов. Варя выходит за него замуж. Революция. Мартынов погибает на посту комиссара, Варе же предстоят тяжелые испытания в борьбе с кулачеством.



    Источник: DVD5 R5
    Качество фильма видео: DVDRip
    Тип видео видео: AVI
    Информация о видео: 688x512 (4: 3), 25 fps, XviD ~ 1667 kbps avg, 0.189 bit/pixel
    Информация о звуке: 48 kHz, Dolby Digital AC3 5.1, 448 kbps
    Раздача от:
    MediaInfo

    Общее
    Полное имя : Selskaya.uchitelnica.1947.DVDRip_New-team_by_AVP_Studio.avi
    Формат : AVI
    Формат/Информация : Audio Video Interleave
    Размер файла : 1, 46 Гбайт
    Продолжительность : 1 ч. 38 м.
    Общий поток : 2125 Кбит/сек
    Программа кодирования : VirtualDubModRus 1.5.10.2 (build 2542/release)
    Библиотека кодирования : VirtualDubMod build 2542/release
    Видео
    Идентификатор : 0
    Формат : MPEG-4 Visual
    Профиль формата : Advanced Simple@L5
    Параметр BVOP формата : 1
    Параметр QPel формата : Нет
    Параметр GMC формата : Без точки перехода
    Параметр матрицы формата : Выборочная
    Идентификатор кодека : XVID
    Идентификатор кодека/Подсказка : XviD
    Продолжительность : 1 ч. 38 м.
    Битрейт : 1667 Кбит/сек
    Ширина : 688 пикселей
    Высота : 512 пикселей
    Соотношение сторон : 4: 3
    Частота кадров : 25, 000 кадров/сек
    Цветовое пространство : YUV
    Субдискретизация насыщенности : 4: 2: 0
    Битовая глубина : 8 бит
    Тип развёртки : Прогрессивная
    Метод сжатия : С потерями
    Бит/(Пиксели*Кадры) : 0.189
    Размер потока : 1, 14 Гбайт (78%)
    Библиотека кодирования : XviD 73
    Аудио
    Идентификатор : 1
    Формат : AC-3
    Формат/Информация : Audio Coding 3
    Расширение режима : CM (complete main)
    Параметр Endianness формата : Big
    Идентификатор кодека : 2000
    Продолжительность : 1 ч. 38 м.
    Вид битрейта : Постоянный
    Битрейт : 448 Кбит/сек
    Каналы : 6 каналов
    Расположение каналов : Front: L C R, Side: L R, LFE
    Частота : 48, 0 КГц
    Битовая глубина : 16 бит
    Метод сжатия : С потерями
    Задержка видео : 480 мс.
    Размер потока : 315 Мбайт (21%)
    Выравнивание : Разделение по промежуткам
    Продолжительность промежутка : 40 мс. (1, 00 видеокадр)
    Время предзагрузки промежутка : 500 мс

    Скриншоты



    Залил: AVPStudio

    Онлайн видео Сельская учительница (1947) DVDRip от New


    Размер скачиваемого торрента: 1.46 GB (1566003200 Bytes)

    Сельская учительница (1947) DVDRip от New-Team
    загрузка...
    Рейтинг →
     (голосов: 1, оценка 5/5, голосовать можно 1 раз )

    Другие торренты по теме:



      Комментарии (0):

      Информация

      Информация

        Посетители, находящиеся в группе Гости, не могут оставлять комментарии в данной новости.

        ↓ Меню



        ↓ Опрос

        А Вы добавили сайт в закладки?
        Да
        Не


        Top 10 за месяц (Фильмы)