.
Авторизация | Регистрация
Хочешь лучшие торренты? Добавь свой email!
Добавить
» » Крепись! / Get Hard (2015) BDRip 720p | UNRATED | Яроцкий скачать торрент бесплатно




    Крепись! / Get Hard (2015) BDRip 720p | UNRATED | Яроцкий скачать торрент бесплатно

    Опубликовал: Админ | Дата: 11-07-2015, 05:01 | Просмотров: 183



    Детально о кино
    Русское название: Крепись!
    Русское название в мировом прокате: Get Hard
    Создали в: 2015
    Категория жанра: Комедия
    Снималось в: США, Gary Sanchez Productions, Warner Bros. Pictures
    Главный режиссер: Итэн Коэн

    Актеры
    Уилл Феррелл, Кевин Харт, Элисон Бри, Мариана Паола Висенте, Пол Бен-Виктор, Ти-Ай, Ванесса Амайа, Тэрин Террелл, Кристофер Хески

    Сюжет фильма
    Миллионер Джеймс Кинг жил себе спокойно, пока его дело не рассмотрели в суде, предъявив обвинение в растрате государственного имущества. Мужчине дали ровно 30 дней на то, чтобы он уладил все свои дела и был готов к отправке в тюрьму. Кинга, который по своей натуре далеко не крепкий орешек, вся эта ситуация пугает и он обращается за помощью к своему мойщику машин. Вместе с Дарнеллом Льюисом будущий зек начинает подготовку к тюремной жизни, которая не щадит слабаков. Такое неожиданное знакомство открывает для героев новые стороны и правды, о которых они и не подозревали.
    Файл
    Качество фильма: BDRip (720p)
    Информация о видео: MPEG-4 AVC, 6800 Кбит/с, 1280x720
    Информация о звуке: Русский (АС3, 6 ch, 640 Кбит/с), (DTS, 6 ch, 1510 Кбит/с), английский (DTS, 6 ch, 1510 Кбит/с)
    Размер скачиваемого торрента: 7.8 ГБ
    Время просмотра: 01: 46: 43
    Перевод текста: Авторский одноголосый закадровый М. Яроцкий
    Субтитры: Английские
    MI
    Общее
    Уникальный идентификатор : 232620345065973451051692590788618718164 (0xAF010C7FB4809692B904D314BC1F8BD4)
    Полное имя : C: Get.Hard.2015.Unrated.720p.BluRay.DD5.1.x264-VietHDGet.Hard.2015.Unrated.720p.BluRay.DTS.x264-VietHD.mkv
    Формат : Matroska
    Версия формата : Version 2
    Размер файла : 7, 80 Гбайт
    Продолжительность : 1 ч. 46 м.
    Общий поток : 10, 5 Мбит/сек
    Название фильма : Run.All.Night.2015.x264.D.(Line).BDRip.(720p)
    Дата кодирования : UTC 2015-07-10 17: 13: 11
    Программа кодирования : mkvmerge v7.9.0 (;Birds;) 64bit
    Библиотека кодирования : libebml v1.3.1 + libmatroska v1.4.2
    DURATION : 01: 46: 00.895000000
    NUMBER_OF_FRAMES : 1964
    NUMBER_OF_BYTES : 73320
    _STATISTICS_WRITING_APP : mkvmerge v8.0.0 (;Til The Day That I Die;) 64bit
    _STATISTICS_WRITING_DATE_UTC : 2015-06-23 03: 34: 03
    _STATISTICS_TAGS : BPS DURATION NUMBER_OF_FRAMES NUMBER_OF_BYTES
    Видео
    Идентификатор : 1
    Формат : AVC
    Формат/Информация : Advanced Video Codec
    Профиль формата : High@L4.1
    Параметр CABAC формата : Да
    Параметр ReFrames формата : 9 кадров
    Идентификатор кодека : V_MPEG4/ISO/AVC
    Продолжительность : 1 ч. 46 м.
    Битрейт : 6800 Кбит/сек
    Ширина : 1280 пикселей
    Высота : 720 пикселей
    Соотношение сторон : 16: 9
    Режим частоты кадров : Постоянный
    Частота кадров : 23, 976 кадра/сек
    Цветовое пространство : YUV
    Субдискретизация насыщенности : 4: 2: 0
    Битовая глубина : 8 бит
    Тип развёртки : Прогрессивная
    Бит/(Пиксели*Кадры) : 0.308
    Размер потока : 4, 92 Гбайт (63%)
    Библиотека кодирования : x264 core 146 r2538kMod 121396c
    Настройки программы : cabac=1/ref=9/deblock=1: -3: -3/analyse=0x3: 0x133/me=umh/subme=10/psy=1/fade_compensate=0.00/psy_rd=1.15: 0.00/mixed_ref=1/me_range=24/chroma_me=1/trellis=2/8x8dct=1/cqm=0/deadzone=21, 11/fast_pskip=0/chroma_qp_offset=-2/threads=6/lookahead_threads=1/sliced_threads=0/nr=0/decimate=0/interlaced=0/bluray_compat=0/constrained_intra=0/fgo=0/bframes=7/b_pyramid=2/b_adapt=2/b_bias=0/direct=3/weightb=1/open_gop=0/weightp=2/keyint=250/keyint_min=23/scenecut=40/intra_refresh=0/rc_lookahead=60/rc=2pass/mbtree=0/bitrate=6800/ratetol=1.0/qcomp=0.65/qpmin=0/qpmax=69/qpstep=4/cplxblur=20.0/qblur=0.5/vbv_maxrate=62500/vbv_bufsize=78125/nal_hrd=none/filler=0/ip_ratio=1.30/pb_ratio=1.20/aq=3: 0.60
    Язык : English
    Default : Да
    Forced : Нет
    Цветовой диапазон : Limited
    Коэффициенты матрицы : BT.709
    DURATION : 01: 46: 43.689000000
    NUMBER_OF_FRAMES : 153535
    NUMBER_OF_BYTES : 5441607286
    _STATISTICS_WRITING_APP : mkvmerge v8.0.0 (;Til The Day That I Die;) 64bit
    _STATISTICS_WRITING_DATE_UTC : 2015-06-23 03: 34: 03
    _STATISTICS_TAGS : BPS DURATION NUMBER_OF_FRAMES NUMBER_OF_BYTES
    Аудио #1
    Идентификатор : 2
    Формат : AC-3
    Формат/Информация : Audio Coding 3
    Расширение режима : CM (complete main)
    Параметр Endianness формата : Big
    Идентификатор кодека : A_AC3
    Продолжительность : 1 ч. 46 м.
    Вид битрейта : Постоянный
    Битрейт : 640 Кбит/сек
    Каналы : 6 каналов
    Расположение каналов : Front: L C R, Side: L R, LFE
    Частота : 48, 0 КГц
    Метод сжатия : С потерями
    Размер потока : 489 Мбайт (6%)
    Язык : Russian
    Default : Да
    Forced : Нет
    Аудио #2
    Идентификатор : 3
    Формат : DTS
    Формат/Информация : Digital Theater Systems
    Режим : 16
    Параметр Endianness формата : Big
    Идентификатор кодека : A_DTS
    Продолжительность : 1 ч. 46 м.
    Вид битрейта : Постоянный
    Битрейт : 1509 Кбит/сек
    Каналы : 6 каналов
    Расположение каналов : Front: L C R, Side: L R, LFE
    Частота : 48, 0 КГц
    Битовая глубина : 24 бит
    Метод сжатия : С потерями
    Размер потока : 1, 12 Гбайт (14%)
    Язык : Russian
    Default : Нет
    Forced : Нет
    Аудио #3
    Идентификатор : 4
    Формат : DTS
    Формат/Информация : Digital Theater Systems
    Режим : 16
    Параметр Endianness формата : Big
    Идентификатор кодека : A_DTS
    Продолжительность : 1 ч. 46 м.
    Вид битрейта : Постоянный
    Битрейт : 1509 Кбит/сек
    Каналы : 6 каналов
    Расположение каналов : Front: L C R, Side: L R, LFE
    Частота : 48, 0 КГц
    Битовая глубина : 24 бит
    Метод сжатия : С потерями
    Размер потока : 1, 12 Гбайт (14%)
    Язык : English
    Default : Нет
    Forced : Нет
    Текст
    Идентификатор : 5
    Формат : UTF-8
    Идентификатор кодека : S_TEXT/UTF8
    Идентификатор кодека/Информация : UTF-8 Plain Text
    Язык : English
    Default : Нет
    Forced : Нет
    Меню
    00: 00: 00.000 : en: 00: 00: 00.000
    00: 12: 29.958 : en: 00: 12: 29.958
    00: 23: 07.803 : en: 00: 23: 07.803
    00: 31: 47.948 : en: 00: 31: 47.948
    00: 44: 17.238 : en: 00: 44: 17.238
    00: 56: 15.747 : en: 00: 56: 15.747
    01: 05: 28.675 : en: 01: 05: 28.675
    01: 15: 21.225 : en: 01: 15: 21.225
    01: 24: 56.967 : en: 01: 24: 56.967
    01: 37: 24.880 : en: 01: 37: 24.880
    01: 42: 53.584 : en: 01: 42: 53.584

    Скриншоты




    Онлайн видео Крепись!


    Размер скачиваемого торрента: 7.80 GB (8372699209 Bytes)

    Крепись!/Get Hard (2015) BDRip 720p | UNRATED | Яроцкий
    загрузка...
    Рейтинг →
     (голосов: 1, оценка 4/5, голосовать можно 1 раз )

    Другие торренты по теме:

  • Крепись! / Get Hard (2015) HDRip | L1
  • Крепись! / Get Hard (2015) BDRip 1080p | L1
  • Крепись! / Get Hard (2015) HDRip | L1
  • Крепись! / Get Hard (2015) BDRip 720p | L1
  • Крепись! / Get Hard (2015) HDRip-AVC | UNRATED | Яроцкий
  • Крепись! / Get Hard (2015) HDRip | iTunes
  • Крепись! / Get Hard (2015) HDRip от Fox 2015 | КПК | iTunes


    • Комментарии (0):

      Информация

      Информация

        Посетители, находящиеся в группе Гости, не могут оставлять комментарии в данной новости.

        ↓ Меню



        ↓ Опрос

        А Вы добавили сайт в закладки?
        Да
        Не


        Top 10 за месяц (Фильмы)