.
Авторизация | Регистрация
Хочешь лучшие торренты? Добавь свой email!
Добавить
» » Зловредная / Pernicious (2014) WEB-DL 720p | L1 скачать торрент бесплатно




    Зловредная / Pernicious (2014) WEB-DL 720p | L1 скачать торрент бесплатно

    Опубликовал: Админ | Дата: 10-07-2015, 05:01 | Просмотров: 126



    Детально о кино
    Русское название: Зловредная
    Русское название в мировом прокате: Pernicious
    Создали в: 2014
    Категория жанра: ужасы, триллер
    Главный режиссер: Джеймс Каллен Брэссак

    Актеры
    Сиара Ханна, Эмили О’Брайэн, Джеки Мур, Расселл Джеффри Бэнкс, Байрон Гибсон, Джек Принья, Sohanne Bengana, Джаред Кон, Сара Малакул Лэйн, Wallop Terathong

    Сюжет фильма
    Это должен было быть обычное приключение в их жизни , как три молодые девушки проводили лето в Таиланде. Но их приключение быстро становится кошмаром , когда трио раскрывает дух убитого ребенка, у которого только одно на уме - месть.


    Снималось в: США, Таиланд/Benetone Films, Benetone Hillin Entertainment, Hillin Entertainment, MilesTone Films, RadioactiveGiant, Shyamal Pictures
    Время просмотра: 01: 32: 28
    Тип перевода: Любительское (одноголосое) datynet, перевод Куценко

    Файл
    Тип видео: MKV
    Качество фильма: WEB-DL 720p
    Информация о видео: 3926 kb/s, 1280x718
    Информация о звуке: Russian/English: AC3, 192 kb/s (2 ch)
    Субтитры: English
    MI

    Format : Matroska
    Format version : Version 4/Version 2
    File size : 2.97 GiB
    Duration : 1h 32mn
    Overall bit rate : 4 593 Kbps
    Encoded date : UTC 2015-07-09 07: 48: 57
    Writing application : mkvmerge v6.1.0 (;Old Devil;) built on Mar 4 2013 09: 10: 42
    Writing library : libebml v1.3.0 + libmatroska v1.4.0
    Video
    ID : 1
    Format : AVC
    Format/Info : Advanced Video Codec
    Format profile : High@L3.1
    Format settings, CABAC : No
    Format settings, ReFrames : 2 frames
    Codec ID : V_MPEG4/ISO/AVC
    Duration : 1h 32mn
    Bit rate : 3 926 Kbps
    Width : 1 280 pixels
    Height : 718 pixels
    Display aspect ratio : 16: 9
    Frame rate mode : Constant
    Frame rate : 23.976 fps
    Color space : YUV
    Chroma subsampling : 4: 2: 0
    Bit depth : 8 bits
    Scan type : Progressive
    Bits/(Pixel*Frame) : 0.178
    Stream size : 2.54 GiB (85%)
    Language : English
    Default : Yes
    Forced : No
    Color range : Limited
    Color primaries : BT.709
    Transfer characteristics : BT.709
    Matrix coefficients : BT.709
    Audio #1
    ID : 2
    Format : AC-3
    Format/Info : Audio Coding 3
    Mode extension : CM (complete main)
    Format settings, Endianness : Big
    Codec ID : A_AC3
    Duration : 1h 32mn
    Bit rate mode : Constant
    Bit rate : 192 Kbps
    Channel(s) : 2 channels
    Channel positions : Front: L R
    Sampling rate : 48.0 KHz
    Bit depth : 16 bits
    Compression mode : Lossy
    Stream size : 127 MiB (4%)
    Language : Russian
    Default : Yes
    Forced : No
    Audio #2
    ID : 3
    Format : AC-3
    Format/Info : Audio Coding 3
    Mode extension : CM (complete main)
    Format settings, Endianness : Big
    Codec ID : A_AC3
    Duration : 1h 32mn
    Bit rate mode : Constant
    Bit rate : 384 Kbps
    Channel(s) : 6 channels
    Channel positions : Front: L C R, Side: L R, LFE
    Sampling rate : 48.0 KHz
    Bit depth : 16 bits
    Compression mode : Lossy
    Stream size : 254 MiB (8%)
    Language : English
    Default : No
    Forced : No
    Text
    ID : 4
    Format : UTF-8
    Codec ID : S_TEXT/UTF8
    Codec ID/Info : UTF-8 Plain Text
    Language : English
    Default : No
    Forced : No
    Menu
    00: 00: 00.000 : en: Welcome to Thailand
    00: 12: 34.000 : en: First Day Out
    00: 22: 47.000 : en: Blackout
    00: 33: 04.000 : en: What Happened Last Night?
    00: 40: 27.000 : en: Looking for the Statue
    00: 51: 46.000 : en: Kumaree
    01: 04: 54.000 : en: The Legend
    01: 14: 02.000 : en: Vanida;s Revenge
    01: 20: 15.000 : en: Loose Ends
    01: 29: 27.000 : en: Closing Credits
    Скриншоты






    Онлайн видео Зловредная


    Размер скачиваемого торрента: 2.97 GB (3185243221 Bytes)

    Зловредная/Pernicious (2014) WEB-DL 720p | L1
    загрузка...
    Рейтинг →
     (голосов: 1, оценка 5/5, голосовать можно 1 раз )

    Другие торренты по теме:



      Комментарии (0):

      Информация

      Информация

        Посетители, находящиеся в группе Гости, не могут оставлять комментарии в данной новости.

        ↓ Меню



        ↓ Опрос

        А Вы добавили сайт в закладки?
        Да
        Не


        Top 10 за месяц (Фильмы)