.
Авторизация | Регистрация
Хочешь лучшие торренты? Добавь свой email!
Добавить
» » Эволюция Борна / The Bourne Legacy (2012) HDRip | Живов скачать торрент бесплатно




    Эволюция Борна / The Bourne Legacy (2012) HDRip | Живов скачать торрент бесплатно

    Опубликовал: Админ | Дата: 7-07-2015, 05:10 | Просмотров: 152




    Создали в: США
    Категория жанра: Боевик, Триллер, Детектив
    Время просмотра: 02: 14: 54
    Перевод текста: Авторский (одноголосый, закадровый)Ю.Живов
    Субтитры: отсутствуют
    Главный режиссер: Тони Гилрой
    Актеры: Джереми Реннер, Рейчел Вайс, Эдвард Нортон, Джоан Аллен, Альберт Финни, Скотт Гленн, Стейси Кич, Донна Мерфи, Майкл Чернус, Кори Столл

    Описание фильма

    Действие разворачивается параллельно событиям фильма Ультиматум Борна. Выясняется, что одновременно с проектом Блэкбрайар разрабатывался проект Разведывательного управления министерства обороны США Аутком, который отличался от проекта ЦРУ Тредстоун тем, что агентам давали специальные таблетки-стимуляторы (синие - для мозга, зелёные - для мышц).
    Минус заключался в том, что эти пилюли нужно было принимать регулярно, в противном случае агент начинал физически и умственно деградировать и в итоге умирал. Одним из агентов был юноша Кеннет Джеймс Китсом, который официально считается погибшим на войне. После успешной подготовки он получает новое имя Аарон Кросс и становится пятым полевым агентом...

    Качество фильма: HDRip
    Информация о видео: Xvid, 688x288 (2.35: 1), ~23.976 fps, 1 091 Kbps (0.230 bit/pixel)
    Информация о звуке: AC3, 6 ch, 448 Kbps, CBR
    Релиз подготовил: FAGOT100
    Mediainfo:

    Формат : AVI
    Формат/Информация : Audio Video Interleave
    Размер файла : 1, 46 Гбайт
    Продолжительность : 2 ч. 14 м.
    Общий поток : 1549 Кбит/сек
    Программа кодирования : VirtualDubMod 1.5.10.3 | www.virtualdub-fr.org || (build 2550/release)
    Библиотека кодирования : VirtualDubMod build 2550/release
    Видео
    Идентификатор : 0
    Формат : MPEG-4 Visual
    Профиль формата : Advanced Simple@L5
    Параметр BVOP формата : 2
    Параметр QPel формата : Нет
    Параметр GMC формата : Без точки перехода
    Параметр матрицы формата : Выборочная
    Идентификатор кодека : XVID
    Идентификатор кодека/Подсказка : XviD
    Продолжительность : 2 ч. 14 м.
    Битрейт : 1091 Кбит/сек
    Ширина : 688 пикселей
    Высота : 288 пикселей
    Соотношение сторон : 2, 40: 1
    Частота кадров : 23, 976 кадра/сек
    Цветовое пространство : YUV
    Субдискретизация насыщенности : 4: 2: 0
    Битовая глубина : 8 бит
    Тип развёртки : Прогрессивная
    Метод сжатия : С потерями
    Бит/(Пиксели*Кадры) : 0.230
    Размер потока : 1, 03 Гбайт (70%)
    Библиотека кодирования : XviD 73
    Аудио
    Идентификатор : 1
    Формат : AC-3
    Формат/Информация : Audio Coding 3
    Расширение режима : CM (complete main)
    Параметр Endianness формата : Big
    Идентификатор кодека : 2000
    Продолжительность : 2 ч. 14 м.
    Вид битрейта : Постоянный
    Битрейт : 448 Кбит/сек
    Каналы : 6 каналов
    Расположение каналов : Front: L C R, Side: L R, LFE
    Частота : 48, 0 КГц
    Битовая глубина : 16 бит
    Метод сжатия : С потерями
    Размер потока : 432 Мбайт (29%)
    Выравнивание : Разделение по промежуткам
    Продолжительность промежутка : 42 мс. (1, 00 видеокадр)
    Время предзагрузки промежутка : 500 мс.
    Скриншоты



    Онлайн видео Эволюция Борна


    Размер скачиваемого торрента: 1.46 GB (1567062016 Bytes)

    Эволюция Борна/The Bourne Legacy (2012) HDRip | Живов
    загрузка...
    Рейтинг →
     (голосов: 1, оценка 5/5, голосовать можно 1 раз )

    Другие торренты по теме:

  • Эволюция Борна / The Bourne Legacy (2012) HDRip | L1 | Расширенная версия
  • OST - Эволюция Борна / The Bourne Legacy (2012) FLAC
  • Эволюция Борна / The Bourne Legacy (2012) DVD9 скачать через торрент бесплатно
  • Эволюция Борна / The Bourne Legacy (2012) BDRip-AVC | D, A


    • Комментарии (0):

      Информация

      Информация

        Посетители, находящиеся в группе Гости, не могут оставлять комментарии в данной новости.

        ↓ Меню



        ↓ Опрос

        А Вы добавили сайт в закладки?
        Да
        Не


        Top 10 за месяц (Фильмы)