.
Авторизация | Регистрация
Хочешь лучшие торренты? Добавь свой email!
Добавить
» » Дети шпионов 3: Игра окончена / Spy Kids 3-D: Game Over (2003) DVD9 | D скачать торрент бесплатно




    Дети шпионов 3: Игра окончена / Spy Kids 3-D: Game Over (2003) DVD9 | D скачать торрент бесплатно

    Опубликовал: Админ | Дата: 7-07-2015, 05:09 | Просмотров: 136



    Детально о кино
    Русское название: Дети шпионов 3: Игра окончена
    Русское название в мировом прокате: Spy Kids 3-D: Game Over
    Создали в: 2003
    Категория жанра: фантастика, боевик, комедия, приключения, семейный
    Главный режиссер: Роберт Родригес

    Актеры
    Дэрил Сабара, Алекса ПенаВега, Рикардо Монтальбан, Сильвестр Сталлоне, Райан Пинкстон, Роберт Вито, Бобби Эднер, Кортни Джайнс, Сальма Хайек, Майк Джадж

    Сюжет фильма

    Шпионы становятся старше, но и враги — все сильнее и изощреннее. Теперь им предстоит вступить в схватку с самим Сильвестром Сталлоне, чтобы спасти не только свои жизни, но и целый мир…
    Несовершеннолетние агенты Джуни и Кармен Кортез отправляются на выполнение нового задания. На этот раз их ждет путешествие по виртуальному миру 3-D видеоигры, разработанной для того, чтобы существа, населяющие ее явились в реальный мир.
    Дочь шпионов Кармен попалась в сети компьютерной игры, созданной зловещим Мастером Игрушек. Теперь ее брат должен спасти сестру, а заодно и весь мир. И помогать ему в этом будут его родители!

    Снималось в: США
    Киностудия: Dimension Films, Los Hooligans Productions, Troublemaker Studios
    Время просмотра: 79 мин./01: 19
    Перевод текста: полное дублирование
    Файл
    Кодек для видео: MPEG2
    Качество фильма: DVD9 West Video
    Информация о видео: PAL 16: 9 (720x576@1024x576) VBR 5365 Kbps, 25.000 fps
    Информация о звуке 1: Dolby AC3, 6 ch, 48.0 KHz, 384 Kbps (русский, английский)
    Информация о звуке 2: DTS 6 ch, 48.0 KHz, 768 Kbps (русский, английский)
    Субтитры: русские
    Дополнительные материалы
    Школа киноискусства за 10 мин: волшебный зеленый экран и крутое домашнее видео3 музыкальных видеоклипаCекреты игрыБольшой Динк, маленький ДинкПутешествие в третье измерение: как создавался фильмСоздание сцены с лавойТрейлер: оригинальный и дублированныйЗапись саундтрека
    MediaInfo
    Общее
    Полное имя : D: deti_shpionov3VIDEO_TSVTS_02_1.VOB
    Формат : MPEG-PS
    Размер файла : 1024 Мбайт
    Продолжительность : 18 м.
    Режим общего битрейта : Переменный
    Общий поток : 7798 Кбит/сек
    Видео
    Идентификатор : 224 (0xE0)
    Формат : MPEG Video
    Версия формата : Version 2
    Профиль формата : Main@Main
    Параметр BVOP формата : Да
    Параметр матрицы формата : По умолчанию
    Параметр GOP формата : M=5, N=26
    Структура изображения : Field
    Продолжительность : 18 м.
    Вид битрейта : Переменный
    Битрейт : 5365 Кбит/сек
    Максимальный битрейт : 8000 Кбит/сек
    Ширина : 720 пикселей
    Высота : 576 пикселей
    Соотношение сторон : 2, 40: 1
    Частота кадров : 25, 000 кадров/сек
    Стандарт вещания : PAL
    Цветовое пространство : YUV
    Субдискретизация насыщенности : 4: 2: 0
    Битовая глубина : 8 бит
    Тип развёртки : Чересстрочная
    Порядок развёртки : Верхнее поле первое
    Метод сжатия : С потерями
    Бит/(Пиксели*Кадры) : 0.517
    Временной код первого кадра : 00: 59: 59: 05
    Оригинал временного кода : Group of pictures t_head
    GOP, открыто/закрыто : Открыто
    Размер потока : 705 Мбайт (69%)
    Основные цвета : BT.601 PAL
    Характеристики трансфера : BT.470 System B, BT.470 System G
    Коэффициенты матрицы : BT.601
    Аудио #1
    Идентификатор : 189 (0xBD)-128 (0x80)
    Формат : AC-3
    Формат/Информация : Audio Coding 3
    Расширение режима : CM (complete main)
    Параметр Endianness формата : Big
    Режим смешивания : DVD-Video
    Продолжительность : 18 м.
    Вид битрейта : Постоянный
    Битрейт : 384 Кбит/сек
    Каналы : 6 каналов
    Расположение каналов : Front: L C R, Side: L R, LFE
    Частота : 48, 0 КГц
    Метод сжатия : С потерями
    Размер потока : 50, 4 Мбайт (5%)
    Аудио #2
    Идентификатор : 189 (0xBD)-130 (0x82)
    Формат : AC-3
    Формат/Информация : Audio Coding 3
    Расширение режима : CM (complete main)
    Параметр Endianness формата : Big
    Режим смешивания : DVD-Video
    Продолжительность : 18 м.
    Вид битрейта : Постоянный
    Битрейт : 384 Кбит/сек
    Каналы : 6 каналов
    Расположение каналов : Front: L C R, Side: L R, LFE
    Частота : 48, 0 КГц
    Метод сжатия : С потерями
    Размер потока : 50, 4 Мбайт (5%)
    Аудио #3
    Идентификатор : 189 (0xBD)-137 (0x89)
    Формат : DTS
    Формат/Информация : Digital Theater Systems
    Режим : 16
    Параметр Endianness формата : Big
    Режим смешивания : DVD-Video
    Продолжительность : 18 м.
    Вид битрейта : Постоянный
    Битрейт : 755 Кбит/сек
    Каналы : 6 каналов
    Расположение каналов : Front: L C R, Side: L R, LFE
    Частота : 48, 0 КГц
    Битовая глубина : 24 бит
    Метод сжатия : С потерями
    Размер потока : 99, 1 Мбайт (10%)
    Аудио #4
    Идентификатор : 189 (0xBD)-139 (0x8B)
    Формат : DTS
    Формат/Информация : Digital Theater Systems
    Режим : 16
    Параметр Endianness формата : Big
    Режим смешивания : DVD-Video
    Продолжительность : 18 м.
    Вид битрейта : Постоянный
    Битрейт : 755 Кбит/сек
    Каналы : 6 каналов
    Расположение каналов : Front: L C R, Side: L R, LFE
    Частота : 48, 0 КГц
    Битовая глубина : 24 бит
    Метод сжатия : С потерями
    Размер потока : 99, 1 Мбайт (10%)
    Текст
    Идентификатор : 189 (0xBD)-32 (0x20)
    Формат : RLE
    Формат/Информация : Run-length encoding
    Режим смешивания : DVD-Video
    Продолжительность : 18 м.
    Задержка видео : 3 с. 640 мс.
    Меню
    Скриншоты


    Залил: carisha

    Онлайн видео Дети шпионов 3: Игра окончена


    Размер скачиваемого торрента: 6.71 GB (7204456448 Bytes)

    Дети шпионов 3: Игра окончена/Spy Kids 3-D: Game Over (2003) DVD9 | D
    загрузка...
    Рейтинг →
     (голосов: 1, оценка 4/5, голосовать можно 1 раз )

    Другие торренты по теме:

  • Дети шпионов / Spy Kids (2001) DVD9 | D
  • Дети шпионов 2: Остров несбывшихся надежд / Spy Kids 2: Island of Lost Dreams (2002) DVD9+DVD5 | D


    • Комментарии (0):

      Информация

      Информация

        Посетители, находящиеся в группе Гости, не могут оставлять комментарии в данной новости.

        ↓ Меню



        ↓ Опрос

        А Вы добавили сайт в закладки?
        Да
        Не


        Top 10 за месяц (Фильмы)