.
Авторизация | Регистрация
Хочешь лучшие торренты? Добавь свой email!
Добавить
» » Комедия ужасов / The Comedy of Terrors (1964) HDTVRip | P2 скачать торрент бесплатно




    Комедия ужасов / The Comedy of Terrors (1964) HDTVRip | P2 скачать торрент бесплатно

    Опубликовал: Админ | Дата: 7-07-2015, 05:09 | Просмотров: 139



    Детально о кино
    Русское название: Комедия ужасов
    Русское название в мировом прокате: The Comedy of Terrors
    Категория жанра: Комедия, Ужасы
    Создали в: 1964
    Главный режиссёр: Жак Турнье

    Актеры
    Винсент Прайс, Питер Лорре, Борис Карлофф, Джойс Джеймсон, Джо Е. Браун, Беверли Пауэрс

    Сюжет фильма
    Владельца похоронного бюро, у которого долгое время не было клиентов, вынуждают заплатить арендную плату за год. Чтобы достать деньги, он начинает убивать людей, и дела у его конторы начинают идти лучше.

    Снималось в: США/American International Pictures (AIP)
    Время просмотра: 01: 23: 08
    Перевод текста: Профессиональный (двухголосый закадровый) НТВ+
    Файл
    Тип видео: AVI
    Качество фильма: HDTVRip Исходник 1080i
    Информация о видео: 720x304 (2.37: 1), 25 fps, XviD build 50 ~2361 kbps avg, 0.43 bit/pixel
    Информация о звуке: 48 kHz, AC3 Dolby Digital, 2/0 (L, R) ch, ~192 kbps
    Семпл
    Media Info
    Комедия ужасов - The Comedy of Terrors Rip by Ledy_X.avi
    Format : AVI
    Format/Info : Audio Video Interleave
    File size : 1.42 GiB
    Duration : 1h 19mn
    Overall bit rate : 2 563 Kbps
    Movie name : Комедия ужасов - The Comedy of Terrors Rip by Ledy_X
    Director : Rip by Ledy_X
    Video
    ID : 0
    Format : MPEG-4 Visual
    Format profile : Advanced Simple@L5
    Format settings, BVOP : 1
    Format settings, QPel : No
    Format settings, GMC : No warppoints
    Format settings, Matrix : Default (MPEG)
    Codec ID : XVID
    Codec ID/Hint : XviD
    Duration : 1h 19mn
    Bit rate : 2 362 Kbps
    Width : 720 pixels
    Height : 304 pixels
    Display aspect ratio : 2.35: 1
    Frame rate : 25.000 fps
    Color space : YUV
    Chroma subsampling : 4: 2: 0
    Bit depth : 8 bits
    Scan type : Progressive
    Compression mode : Lossy
    Bits/(Pixel*Frame) : 0.432
    Stream size : 1.31 GiB (92%)
    Writing library : XviD 1.2.1 (UTC 2008-12-04)
    Audio
    ID : 1
    Format : AC-3
    Format/Info : Audio Coding 3
    Mode extension : CM (complete main)
    Format settings, Endianness : Big
    Codec ID : 2000
    Duration : 1h 19mn
    Bit rate mode : Constant
    Bit rate : 192 Kbps
    Channel(s) : 2 channels
    Channel positions : Front: L R
    Sampling rate : 48.0 KHz
    Bit depth : 16 bits
    Compression mode : Lossy
    Stream size : 109 MiB (7%)
    Alignment : Split accross interleaves
    Interleave, duration : 40 ms (1.00 video frame)
    Interleave, preload duration : 500 ms

    Скриншоты

    Релиз:
    Залил: gigauri

    Онлайн видео Комедия ужасов


    Размер скачиваемого торрента: 1.42 GB (1529108480 Bytes)

    Комедия ужасов/The Comedy of Terrors (1964) HDTVRip | P2
    загрузка...
    Рейтинг →
     (голосов: 1, оценка 5/5, голосовать можно 1 раз )

    Другие торренты по теме:

  • Комедия ужасов / The Comedy of Terrors (1964) DVDRip-AVC от F-Torrents


    • Комментарии (0):

      Информация

      Информация

        Посетители, находящиеся в группе Гости, не могут оставлять комментарии в данной новости.

        ↓ Меню



        ↓ Опрос

        А Вы добавили сайт в закладки?
        Да
        Не


        Top 10 за месяц (Фильмы)