.
Авторизация | Регистрация
Хочешь лучшие торренты? Добавь свой email!
Добавить
» » Ночные ястребы / Ночные ястребы (1981) HDTV 1080i от HDClub | P, A скачать торрент бесплатно




    Ночные ястребы / Ночные ястребы (1981) HDTV 1080i от HDClub | P, A скачать торрент бесплатно

    Опубликовал: Админ | Дата: 7-07-2015, 05:08 | Просмотров: 123



    Ночные ястребы
    | Ночные ястребы|

    Детально о кино
    Русское название: Ночные ястребы
    Русское название в мировом прокате: Nighthawks
    Создали в: 1981
    Категория жанра: Боевик, триллер, криминал
    Главный режиссер: Брюс Мэлмат, Гэри Нельсон

    Актеры
    Сильвестр Сталлоне, Билли Ди Уильямс, Линдсэй Вагнер, Персис Хамбатта, Найджел Дэвенпорт, Рутгер Хауэр, Хилари Томпсон, Джо Спинелл, Уолтер Мэтьюз, Э. Брайан Дин

    Сюжет фильма

    Отчаянный сержант нью-йоркской полиции Дик Де Сильва привык ловить преступников в экстремальной ситуации на живца, в роли которого всегда выступал он сам. Но адреналиновой службе приходит конец, после того, как героя переводят во вновь созданное антитеррористическое подразделение. Однако скучать в новой должности Де Сильве не пришлось. В Нью-Йорке объявился самый разыскиваемой террорист на Земле — безжалостный убийца Хеймар Райнхардт, известный всему миру, как Вульфгар, который захватывает заложников прямо в воздухе, в вагончике фуникулера, следующего на Рузвельт — Айленд. Теперь самый бесстрашный коп должен будет сразиться с самым жестоким террористом!

    Снималось в: США
    Киностудия: Universal Pictures, Martin Poll Productions, The Production Company
    Время просмотра: 01: 35: 07
    Перевод текста: Профессиональный многоголосый, авторский
    Файл
    Кодек для видео: h264
    Качество фильма: HDTV 1080i
    Информация о видео: 11797 Кбит/с, 1920x1080, 25.000 кадр/с
    Информация о звуке:
    Аудио #1: Russian: 48 kHz, AC3, 2/0 (L, R) ch, 192 kbps avg |Многоголосый закадровый|
    Аудио #2: Russian: 48 kHz, AC3, 2/0 (L, R) ch, 192 kbps avg |Многоголосый закадровый, НТВ+|
    Аудио #3: Russian: 48 kHz, AC3, 2/0 (L, R) ch, 192 kbps avg |Одноголосый закадровый, Алексей Михалев|
    Аудио #4: Russian: 48 kHz, AC3, 2/0 (L, R) ch, 192 kbps avg |Одноголосый закадровый, Сергей Кузнецов|
    Аудио #4: Russian: 48 kHz, AC3, 2/0 (L, R) ch, 192 kbps avg |Одноголосый закадровый, Юрий Товбин|
    Аудио #5: Russian: 48 kHz/16-bit, DTS, 2/0 (L, R) ch, 1536 kbps avg |Одноголосый закадровый, Андрей Гаврилов|
    Аудио #6: Ukrainian: 48 kHz, AC3, 2/0 (L, R) ch, 192 kbps avg |Многоголосый закадровый, ICTV|
    Аудио #7: Ukrainian: 48 kHz, AC3, 2/0 (L, R) ch, 192 kbps avg |Многоголосый закадровый, ТРК Украина|
    Аудио #8: English: 48 kHz/16-bit, DTS, 2/0 (L, R) ch, 1536 kbps avg
    Субтитры: Английские
    Cравнение для наглядности
    ------- HDTV-------VS------- Blu-Ray-------
    MediaInfo

    Полное имя : Nighthawks.1981.1080i.HDTV.AVC.Remux.HDCLUB.mkv
    Формат : Matroska
    Версия формата : Version 2
    Размер файла : 10, 7 Гбайт
    Продолжительность : 1 ч. 35 м.
    Режим общего битрейта : Переменный
    Общий поток : 16, 2 Мбит/сек
    Название фильма : Ночные ястребы | Nighthawks 1981 -= HDTV (1080i) by HDClub=-
    Дата кодирования : UTC 2015-07-06 10: 07: 18
    Программа кодирования : mkvmerge v6.6.0 (;The Edge Of The In Between;) built on Dec 1 2013 17: 55: 00
    Библиотека кодирования : libebml v1.3.0 + libmatroska v1.4.1
    Видео
    Идентификатор : 1
    Формат : AVC
    Формат/Информация : Advanced Video Codec
    Профиль формата : Main@L4.0
    Параметр CABAC формата : Да
    Параметр ReFrames формата : 4 кадра
    Идентификатор кодека : V_MPEG4/ISO/AVC
    Продолжительность : 1 ч. 35 м.
    Вид битрейта : Переменный
    Битрейт : 11, 5 Мбит/сек
    Максимальный битрейт : 40, 0 Мбит/сек
    Ширина : 1920 пикселей
    Высота : 1080 пикселей
    Соотношение сторон : 16: 9
    Режим частоты кадров : Постоянный
    Частота кадров : 25, 000 кадров/сек
    Цветовое пространство : YUV
    Субдискретизация насыщенности : 4: 2: 0
    Битовая глубина : 8 бит
    Тип развёртки : Чересстрочная
    Порядок развёртки : Верхнее поле первое
    Бит/(Пиксели*Кадры) : 0.221
    Размер потока : 7, 63 Гбайт (71%)
    Заголовок : HDTV by dm8000
    Язык : English
    Default : Да
    Forced : Да
    Основные цвета : BT.709
    Характеристики трансфера : BT.709
    Коэффициенты матрицы : BT.709
    Аудио #1
    Идентификатор : 2
    Формат : AC-3
    Формат/Информация : Audio Coding 3
    Расширение режима : CM (complete main)
    Параметр Endianness формата : Big
    Идентификатор кодека : A_AC3
    Продолжительность : 1 ч. 35 м.
    Вид битрейта : Постоянный
    Битрейт : 192 Кбит/сек
    Каналы : 2 канала
    Расположение каналов : Front: L R
    Частота : 48, 0 КГц
    Битовая глубина : 16 бит
    Метод сжатия : С потерями
    Размер потока : 131 Мбайт (1%)
    Заголовок : Многоголосый AC3 2.0 @ 192 kbps
    Язык : Russian
    Default : Да
    Forced : Да
    Аудио #2
    Идентификатор : 3
    Формат : AC-3
    Формат/Информация : Audio Coding 3
    Расширение режима : CM (complete main)
    Параметр Endianness формата : Big
    Идентификатор кодека : A_AC3
    Продолжительность : 1 ч. 35 м.
    Вид битрейта : Постоянный
    Битрейт : 192 Кбит/сек
    Каналы : 2 канала
    Расположение каналов : Front: L R
    Частота : 48, 0 КГц
    Битовая глубина : 16 бит
    Метод сжатия : С потерями
    Размер потока : 131 Мбайт (1%)
    Заголовок : Многоголосый НТВ+ AC3 2.0 @ 192 kbps
    Язык : Russian
    Default : Нет
    Forced : Нет
    Аудио #3
    Идентификатор : 4
    Формат : AC-3
    Формат/Информация : Audio Coding 3
    Расширение режима : CM (complete main)
    Параметр Endianness формата : Big
    Идентификатор кодека : A_AC3
    Продолжительность : 1 ч. 35 м.
    Вид битрейта : Постоянный
    Битрейт : 192 Кбит/сек
    Каналы : 2 канала
    Расположение каналов : Front: L R
    Частота : 48, 0 КГц
    Битовая глубина : 16 бит
    Метод сжатия : С потерями
    Размер потока : 131 Мбайт (1%)
    Заголовок : Авторский Алексей Михалев AC3 2.0 @ 192 kbps
    Язык : Russian
    Default : Нет
    Forced : Нет
    Аудио #4
    Идентификатор : 5
    Формат : AC-3
    Формат/Информация : Audio Coding 3
    Расширение режима : CM (complete main)
    Параметр Endianness формата : Big
    Идентификатор кодека : A_AC3
    Продолжительность : 1 ч. 35 м.
    Вид битрейта : Постоянный
    Битрейт : 192 Кбит/сек
    Каналы : 2 канала
    Расположение каналов : Front: L R
    Частота : 48, 0 КГц
    Битовая глубина : 16 бит
    Метод сжатия : С потерями
    Размер потока : 131 Мбайт (1%)
    Заголовок : Авторский Сергей Кузнецов AC3 2.0 @ 192 kbps
    Язык : Russian
    Default : Нет
    Forced : Нет
    Аудио #5
    Идентификатор : 6
    Формат : AC-3
    Формат/Информация : Audio Coding 3
    Расширение режима : CM (complete main)
    Параметр Endianness формата : Big
    Идентификатор кодека : A_AC3
    Продолжительность : 1 ч. 35 м.
    Вид битрейта : Постоянный
    Битрейт : 192 Кбит/сек
    Каналы : 2 канала
    Расположение каналов : Front: L R
    Частота : 48, 0 КГц
    Битовая глубина : 16 бит
    Метод сжатия : С потерями
    Размер потока : 131 Мбайт (1%)
    Заголовок : Авторский Юрий Товбин AC3 2.0 @ 192 kbps
    Язык : Russian
    Default : Нет
    Forced : Нет
    Аудио #6
    Идентификатор : 7
    Формат : DTS
    Формат/Информация : Digital Theater Systems
    Режим : 16
    Параметр Endianness формата : Big
    Идентификатор кодека : A_DTS
    Продолжительность : 1 ч. 35 м.
    Вид битрейта : Постоянный
    Битрейт : 1510 Кбит/сек
    Каналы : 2 канала
    Расположение каналов : Front: L R
    Частота : 48, 0 КГц
    Битовая глубина : 16 бит
    Метод сжатия : С потерями
    Размер потока : 1, 00 Гбайт (9%)
    Заголовок : Авторский Андрей Гаврилов DTS 2.0 @ 1536 kbps
    Язык : Russian
    Default : Нет
    Forced : Нет
    Аудио #7
    Идентификатор : 8
    Формат : AC-3
    Формат/Информация : Audio Coding 3
    Расширение режима : CM (complete main)
    Параметр Endianness формата : Big
    Идентификатор кодека : A_AC3
    Продолжительность : 1 ч. 35 м.
    Вид битрейта : Постоянный
    Битрейт : 192 Кбит/сек
    Каналы : 2 канала
    Расположение каналов : Front: L R
    Частота : 48, 0 КГц
    Битовая глубина : 16 бит
    Метод сжатия : С потерями
    Размер потока : 131 Мбайт (1%)
    Заголовок : Многоголосый ICTV AC3 2.0 @ 192 kbps
    Язык : Ukrainian
    Default : Нет
    Forced : Нет
    Аудио #8
    Идентификатор : 9
    Формат : AC-3
    Формат/Информация : Audio Coding 3
    Расширение режима : CM (complete main)
    Параметр Endianness формата : Big
    Идентификатор кодека : A_AC3
    Продолжительность : 1 ч. 35 м.
    Вид битрейта : Постоянный
    Битрейт : 192 Кбит/сек
    Каналы : 2 канала
    Расположение каналов : Front: L R
    Частота : 48, 0 КГц
    Битовая глубина : 16 бит
    Метод сжатия : С потерями
    Размер потока : 131 Мбайт (1%)
    Заголовок : Многоголосый ТРК Украина AC3 2.0 @ 192 kbps
    Язык : Ukrainian
    Default : Нет
    Forced : Нет
    Аудио #9
    Идентификатор : 10
    Формат : DTS
    Формат/Информация : Digital Theater Systems
    Режим : 16
    Параметр Endianness формата : Big
    Идентификатор кодека : A_DTS
    Продолжительность : 1 ч. 35 м.
    Вид битрейта : Постоянный
    Битрейт : 1510 Кбит/сек
    Каналы : 2 канала
    Расположение каналов : Front: L R
    Частота : 48, 0 КГц
    Битовая глубина : 16 бит
    Метод сжатия : С потерями
    Размер потока : 1, 00 Гбайт (9%)
    Заголовок : DTS 2.0 @ 1536 kbps
    Язык : English
    Default : Нет
    Forced : Нет
    Текст
    Идентификатор : 11
    Формат : UTF-8
    Идентификатор кодека : S_TEXT/UTF8
    Идентификатор кодека/Информация : UTF-8 Plain Text
    Язык : English
    Default : Нет
    Forced : Нет
    Меню
    00: 00: 00.000 : : Chapter 01
    00: 01: 48.639 : : Chapter 02
    00: 07: 15.520 : : Chapter 03
    00: 14: 15.720 : : Chapter 04
    00: 22: 47.680 : : Chapter 05
    00: 28: 55.400 : : Chapter 06
    00: 34: 31.520 : : Chapter 07
    00: 41: 09.199 : : Chapter 08
    00: 47: 17.000 : : Chapter 09
    00: 54: 59.840 : : Chapter 10
    01: 01: 51.800 : : Chapter 11
    01: 06: 51.400 : : Chapter 12
    01: 13: 28.040 : : Chapter 13
    01: 19: 15.479 : : Chapter 14
    01: 25: 27.040 : : Chapter 15
    01: 31: 40.760 : : Chapter 16
    Скриншоты



    Релиз подготовил:
    Залил: 0ptimus

    Онлайн видео Ночные ястребы


    Размер скачиваемого торрента: 10.74 GB (11533422723 Bytes)

    Ночные ястребы/Ночные ястребы (1981) HDTV 1080i от HDClub | P, A
    загрузка...
    Рейтинг →
     (голосов: 1, оценка 4/5, голосовать можно 1 раз )

    Другие торренты по теме:

  • Ночные ястребы / Nighthawks (1981) HDTVRip 720p от 0ptimus | P, A
  • Ночные ястребы / Nighthawks (1981) HDTVRip-AVC от 0ptimus | P, A
  • Ночные ястребы / Nighthawks (1981) HDTVRip от Leon-masl | P скачать через торрент бесплатно


    • Комментарии (0):

      Информация

      Информация

        Посетители, находящиеся в группе Гости, не могут оставлять комментарии в данной новости.

        ↓ Меню



        ↓ Опрос

        А Вы добавили сайт в закладки?
        Да
        Не


        Top 10 за месяц (Фильмы)